<?xml version="1.0" standalone="no"?>
<!DOCTYPE svg PUBLIC "-//W3C//DTD SVG 1.1//EN" "http://www.w3.org/Graphics/SVG/1.1/DTD/svg11.dtd" >
<svg xmlns="http://www.w3.org/2000/svg">
  <metadata>Created by iconfont</metadata>
  <defs>
  <font id="iconfont" horiz-adv-x="1024">
    <font-face
      font-family="iconfont"
      font-weight="400"
      font-stretch="normal"
      units-per-em="1024"
      ascent="896"
      descent="-128"
    />
      <missing-glyph />
      
      <glyph glyph-name="jianhao" unicode="&#59171;" d="M240.941176 432.670118h542.117648v-78.305883h-542.117648v78.305883z"  horiz-adv-x="1024" />
      
      <glyph glyph-name="jiahao" unicode="&#59172;" d="M472.847059 354.364235v-231.905882h78.305882v231.905882h231.905883v78.305883H551.152941v231.905882h-78.305882v-231.905882H240.941176v-78.305883h231.905883z"  horiz-adv-x="1024" />
      
      <glyph glyph-name="guanbi2" unicode="&#59170;" d="M512-128C229.7344-128 0 101.7856 0 384 0 666.2656 229.7344 896 512 896c282.2144 0 512-229.7344 512-512 0-282.2144-229.7856-512-512-512z m0 972.8c-254.1056 0-460.8-206.6944-460.8-460.8s206.6944-460.8 460.8-460.8 460.8 206.6944 460.8 460.8-206.6944 460.8-460.8 460.8zM320 166.4a25.2928 25.2928 0 0 0-17.92 7.68c-10.24 10.24-10.24 26.2144 0 36.5056l384 384c10.24 10.24 26.2144 10.24 36.5056 0 10.24-10.24 10.24-26.2656 0-36.5056l-384-384a27.904 27.904 0 0 0-18.5856-7.68zM704 166.4a25.2928 25.2928 0 0 0-17.92 7.68L302.08 558.08c-10.24 10.24-10.24 26.2144 0 36.4544 10.24 10.24 26.2144 10.24 36.4544 0l384-384c10.24-10.24 10.24-26.2144 0-36.4544a27.904 27.904 0 0 0-18.5344-7.68z"  horiz-adv-x="1024" />
      
      <glyph glyph-name="guanbi" unicode="&#59169;" d="M512-33.96C281.6-33.96 94.04 153.6 94.04 384S281.6 801.96 512 801.96 929.96 614.4 929.96 384 742.4-33.96 512-33.96z m0 794.123c-207.412 0-376.163-168.75-376.163-376.163S304.587 7.837 512 7.837 888.163 176.587 888.163 384 719.413 760.163 512 760.163zM355.265 206.367c-5.224 0-10.449 2.09-14.628 6.27-8.36 8.359-8.36 21.42 0 29.78l313.47 313.469c8.358 8.359 21.42 8.359 29.779 0 8.359-8.36 8.359-21.42 0-29.78l-313.47-313.47c-4.702-4.179-9.926-6.269-15.15-6.269zM668.735 206.367c-5.225 0-10.45 2.09-14.629 6.27l-313.47 313.47c-8.358 8.358-8.358 21.42 0 29.779 8.36 8.359 21.421 8.359 29.78 0l313.47-313.47c8.359-8.359 8.359-21.42 0-29.78-4.702-4.179-9.927-6.269-15.151-6.269z"  horiz-adv-x="1024" />
      
      <glyph glyph-name="revoke" unicode="&#58890;" d="M315.34102 671.614729l40.526781 0.255959a63.989655 63.989655 0 0 0 0.853196-127.97931l-191.968965-1.109154a64.330933 64.330933 0 0 0-12.797931 1.194473 63.989655 63.989655 0 0 0-61.17411 63.563057l-1.109154 191.968965a63.989655 63.989655 0 0 0 127.97931 0.682557l0.255958-44.366161a511.91724 511.91724 0 1 0-24.316069-719.329042 63.989655 63.989655 0 0 0 93.936814 86.940611 383.93793 383.93793 0 1 1 27.81417 548.263364z"  horiz-adv-x="1109" />
      
      <glyph glyph-name="yanzhengma" unicode="&#58886;" d="M184.021333 384A328.021333 328.021333 0 1 0 512 55.978667H183.978667V384z m-48 0v-352c0-13.226667 10.709333-24.021333 23.978667-24.021333v24.021333l0.042667-24.021333H512A376.021333 376.021333 0 1 1 135.978667 384z m559.957334 152.021333H328.021333v-48.042666h368V536.021333z m-368-160h368v-48.042666H328.021333v48.042666z m208-160H328.064v-48.042666h208v48z"  horiz-adv-x="1024" />
      
      <glyph glyph-name="mima" unicode="&#58888;" d="M512 786.645333A189.354667 189.354667 0 0 0 701.354667 597.333333v-157.354666H322.688V597.333333A189.354667 189.354667 0 0 0 512 786.688zM274.645333 597.333333v-157.354666h-75.52c-32.213333 0-63.146667-23.893333-63.146666-58.88v-314.197334c0-34.986667 30.933333-58.88 63.146666-58.88h625.749334c32.213333 0 63.146667 23.893333 63.146666 58.88v314.197334c0 34.986667-30.933333 58.88-63.146666 58.88h-75.52V597.333333A237.312 237.312 0 1 1 274.688 597.333333z m-75.52-205.354666h625.749334c11.008 0 15.146667-7.338667 15.146666-10.88v-314.197334c0-3.541333-4.138667-10.922667-15.146666-10.922666H199.125333c-11.008 0-15.104 7.381333-15.104 10.922666v314.197334c0 3.541333 4.096 10.88 15.104 10.88z m336.896-256v176h-48.042666v-175.957334h48.042666z"  horiz-adv-x="1024" />
      
      <glyph glyph-name="shoujihao" unicode="&#58889;" d="M298.666667 786.645333a39.978667 39.978667 0 0 1-40.021334-39.978666v-725.333334c0-22.101333 17.92-40.021333 40.021334-40.021333h426.666666c22.101333 0 40.021333 17.92 40.021334 40.021333v725.333334A39.978667 39.978667 0 0 1 725.333333 786.688H298.666667zM210.645333 746.666667c0 48.64 39.424 88.021333 88.021334 88.021333h426.666666c48.64 0 88.021333-39.424 88.021334-88.021333v-725.333334c0-48.64-39.424-88.021333-88.021334-88.021333H298.666667A87.978667 87.978667 0 0 0 210.645333 21.333333v725.333334z m234.666667-40.021334h133.376v-48h-133.376V706.645333z m176.042667-597.333333H402.602667v-48h218.709333v48z"  horiz-adv-x="1024" />
      
      <glyph glyph-name="Link1" unicode="&#58885;" d="M582.784 208.768a9.216 9.216 0 0 1-12.928 0l-132.8-132.8c-61.44-61.44-165.248-67.968-233.152 0-67.968 68.032-61.44 171.648 0 233.152l132.8 132.8a9.152 9.152 0 0 1 0 12.928l-45.44 45.44a9.152 9.152 0 0 1-12.928 0L145.536 367.488a247.04 247.04 0 0 1 0-349.696 247.168 247.168 0 0 1 349.696 0l132.8 132.8a9.152 9.152 0 0 1 0 12.928l-45.248 45.248z m295.552 541.696a247.04 247.04 0 0 1-349.76 0L395.712 617.664a9.152 9.152 0 0 1 0-12.864l45.376-45.44a9.152 9.152 0 0 1 12.864 0l132.8 132.864c61.504 61.44 165.248 67.968 233.152 0 68.032-68.032 61.44-171.712 0-233.152l-132.8-132.8a9.152 9.152 0 0 1 0-12.928l45.44-45.44a9.152 9.152 0 0 1 12.992 0l132.8 132.736a247.424 247.424 0 0 1 0 349.824zM624 543.744a9.152 9.152 0 0 1-12.864 0L352.256 284.992a9.152 9.152 0 0 1 0-12.928l45.248-45.248a9.152 9.152 0 0 1 12.928 0l258.752 258.752a9.152 9.152 0 0 1 0 12.928l-45.184 45.248z"  horiz-adv-x="1024" />
      
      <glyph glyph-name="bianjiedit" unicode="&#58884;" d="M659.264 765.568c43.776 43.328 114.304 43.776 157.44 1.024l62.016-61.376a109.44 109.44 0 0 0-1.024-155.84l-0.64-0.64a13.12 13.12 0 0 0-18.432-0.128L658.56 746.688a12.864 12.864 0 0 0 0.128 18.304l0.64 0.64z m159.68-256.128a12.864 12.864 0 0 0-0.128-18.304L366.528 43.52a113.28 113.28 0 0 0-97.28-31.36l-92.544 14.72a54.4 54.4 0 0 0-45.44 44.992l-14.848 91.52a110.72 110.72 0 0 0 31.744 96.32l452.288 447.68c5.12 5.12 13.376 5.12 18.432 0.128l200.064-198.08z m-176-413.184a64 64 0 1 1 0-128h320a64 64 0 0 1 0 128h-320z"  horiz-adv-x="1088" />
      
      <glyph glyph-name="close" unicode="&#58883;" d="M920.7296 755.0976a63.488 63.488 0 0 0 0-89.9072L271.5136 16.384a63.6416 63.6416 0 0 0-89.9584 89.856l649.216 648.8576a63.6416 63.6416 0 0 0 89.9584 0zM923.5968 12.9536a63.6416 63.6416 0 0 0-89.9584 0L184.32 661.8112a63.488 63.488 0 1 0 89.9584 89.9072l649.216-648.8576c24.8832-24.832 24.8832-65.024 0-89.9072z"  horiz-adv-x="1075" />
      
      <glyph glyph-name="icon-yirenzheng-c" unicode="&#58887;" d="M440.174099 834.638592l-23.852831-3.220132c-85.154606-11.270463-170.607373-54.384455-234.473329-118.369673-65.535653-65.535653-105.906569-148.066448-118.548569-242.464027a539.014347 539.014347 0 0 1-0.894482-96.186541 418.497919 418.497919 0 0 1 329.467228-363.934568c53.012917-11.330095 118.369674-11.330095 171.38259 0a419.452032 419.452032 0 0 1 270.908528 191.597865c60.586191 98.691088 76.567587 220.698318 43.829577 334.535954-40.132388 139.777589-157.070892 252.064791-298.637444 286.889924-36.435199 8.944812-51.939539 10.733774-95.411324 11.330095a849.757103 849.757103 0 0 1-43.769944-0.178897m257.670206-299.41266c9.242972-4.174245 16.219925-12.820897 17.531831-21.765708 2.444915-16.219925 7.692538-10.197085-115.865127-133.933646-62.255889-62.375153-116.461447-115.507334-120.516428-118.071513a58.499068 58.499068 0 0 0-38.939747-8.348491c-21.82534 3.756821-22.302397 4.114613-94.815003 76.388691-36.554463 36.435199-68.338361 68.934681-70.604379 72.154814a30.114199 30.114199 0 0 0 11.091566 43.829576 35.659982 35.659982 0 0 0 26.476642-0.238528c3.041236-1.550434 34.884765-32.082058 70.783276-67.801672l65.177861-64.998964 109.723022 109.842286c74.599729 74.718993 111.750513 110.856032 116.044023 112.883523a26.953699 26.953699 0 0 0 23.912463 0.059632"  horiz-adv-x="1099" />
      
      <glyph glyph-name="a-bangzhuicon-bzzx-normal" unicode="&#58881;" d="M183.125333 712.832A463.744 463.744 0 0 0 512 849.066667c128.426667 0 244.693333-52.096 328.832-136.234667l-27.136-27.136 27.136 27.136A463.744 463.744 0 0 0 977.066667 384c0-128.426667-52.096-244.736-136.234667-328.832A463.744 463.744 0 0 0 512-81.066667c-128.426667 0-244.736 52.053333-328.874667 136.192l27.178667 27.178667-27.178667-27.136A463.744 463.744 0 0 0 46.933333 384c0 128.426667 52.053333 244.736 136.192 328.832zM512 772.266667a386.944 386.944 0 0 1-274.56-113.706667A386.944 386.944 0 0 1 123.733333 384a386.944 386.944 0 0 1 113.706667-274.56A386.944 386.944 0 0 1 512-4.266667a386.986667 386.986667 0 0 1 274.517333 113.706667A386.986667 386.986667 0 0 1 900.266667 384a386.944 386.944 0 0 1-113.749334 274.56A386.944 386.944 0 0 1 512 772.266667zM345.6 498.645333a166.4 166.4 0 1 0 204.8-161.92v-51.413333a38.4 38.4 0 1 0-76.8 0v85.333333a38.4 38.4 0 0 0 38.4 38.4 89.6 89.6 0 1 1-89.6 89.6 38.4 38.4 0 0 0-76.8 0zM512 93.312a53.333333 53.333333 0 1 1 0 106.666667 53.333333 53.333333 0 0 1 0-106.666667z"  horiz-adv-x="1024" />
      
      <glyph glyph-name="a-daimaicon-dmmemo-hover" unicode="&#58882;" d="M168.405333 709.418667a2.005333 2.005333 0 0 1-2.005333-2.005334v-646.741333c0-1.109333 0.853333-2.005333 2.005333-2.005333h687.146667a2.005333 2.005333 0 0 1 2.048 2.005333V586.154667a2.005333 2.005333 0 0 1-2.048 2.005333H512a38.4 38.4 0 0 0-29.525333 13.824L392.96 709.418667H168.405333zM89.6 707.413333c0 43.52 35.285333 78.805333 78.805333 78.805334h242.517334a38.4 38.4 0 0 0 29.525333-13.824l89.514667-107.434667h325.589333c43.52 0 78.848-35.285333 78.848-78.805333v-525.482667c0-43.52-35.285333-78.805333-78.848-78.805333H168.405333A78.805333 78.805333 0 0 0 89.6 60.672V707.413333zM565.674667 451.626667a38.4 38.4 0 0 0 54.314666 0l101.034667-101.077334a38.4 38.4 0 0 0 0-54.314666l-101.077333-101.034667a38.4 38.4 0 1 0-54.272 54.314667l73.898666 73.898666-73.898666 73.898667a38.4 38.4 0 0 0 0 54.314667zM458.24 451.626667a38.4 38.4 0 0 0 0-54.314667L384.426667 323.413333l73.898666-73.898666a38.4 38.4 0 0 0-54.314666-54.314667L302.933333 296.234667a38.4 38.4 0 0 0 0 54.314666l101.034667 101.077334a38.4 38.4 0 0 0 54.314667 0z"  horiz-adv-x="1024" />
      
      <glyph glyph-name="Vector" unicode="&#59168;" d="M1423.872 752.128l-844.8-844.8a76.8 76.8 0 0 0-108.544 0L48.128 329.6256A76.8 76.8 0 0 0 156.672 438.272l368.128-368.0256 790.528 790.528a76.8 76.8 0 0 0 108.544-108.6464zM2307.072 860.672a76.8 76.8 0 0 1-108.544 0l-790.528-790.528-170.0864 170.0864a76.8 76.8 0 1 1-108.544-108.544l224.256-224.3584a76.8 76.8 0 0 1 108.6464 0l844.8 844.8a76.8 76.8 0 0 1 0 108.544z"  horiz-adv-x="2355" />
      
      <glyph glyph-name="yzzyc" unicode="&#59167;" d="M967.121455 383.96897c0-262.764606-213.02303-475.787636-475.818667-475.787637C228.538182-91.818667 15.515152 121.173333 15.515152 383.96897S228.538182 859.756606 491.302788 859.756606c262.795636 0 475.818667-213.02303 475.818667-475.787636zM491.302788-60.788364C245.666909-60.788364 46.545455 138.333091 46.545455 383.96897S245.666909 828.726303 491.302788 828.726303 936.091152 629.604848 936.091152 384s-199.152485-444.757333-444.788364-444.757333z m0-31.030303c262.795636 0 475.818667 213.02303 475.818667 475.787637S754.098424 859.756606 491.302788 859.756606C228.538182 859.756606 15.515152 646.733576 15.515152 384s213.02303-475.787636 475.787636-475.787636zM299.628606 229.34497l4.809697-0.496485H667.151515a108.606061 108.606061 0 1 1-35.995151 211.130182l-17.004606-5.988849a31.030303 31.030303 0 0 0-40.742788 23.458909l-3.413334 17.687273a117.387636 117.387636 0 0 1-232.47903-18.245818l-0.434424-13.156849a31.030303 31.030303 0 0 0-26.965334-29.72703l-13.032727-1.706667a92.16 92.16 0 0 1 2.544485-182.954666zM294.787879 183.047758a138.705455 138.705455 0 0 0-3.785697 275.393939 163.87103 163.87103 0 0 0 324.732121 25.444848A154.65503 154.65503 0 0 0 667.151515 492.606061a155.151515 155.151515 0 0 0 0-310.303031H294.787879v0.744728zM496.484848 407.272727a23.272727 23.272727 0 0 0 23.272728-23.272727V306.424242a23.272727 23.272727 0 0 0-46.545455 0v77.575758a23.272727 23.272727 0 0 0 23.272727 23.272727z"  horiz-adv-x="1024" />
      
      <glyph glyph-name="qyzyc" unicode="&#59165;" d="M491.302788 383.96897m-460.272485 0a460.272485 460.272485 0 1 1 920.54497 0 460.272485 460.272485 0 1 1-920.54497 0ZM538.065455 616.41697c13.591273 2.234182 26.065455-7.447273 27.554909-20.790303l0.155151-2.699637v-77.979151l126.479515-42.201212a23.769212 23.769212 0 0 0 16.104728-19.797334l0.155151-2.761697v-285.478788a23.800242 23.800242 0 0 0-21.007515-23.58303l-2.792727-0.186182h-428.218182a23.800242 23.800242 0 0 0-23.58303 21.007516L232.727273 164.739879V545.357576c0 10.643394 7.074909 19.859394 17.066666 22.807272l2.792728 0.651637 285.478788 47.569454z m-19.859394-51.572364l-237.909334-39.625697V188.509091H518.206061V564.813576z m47.569454-100.072727V188.509091h95.138909v244.549818l-95.138909 31.71297zM446.836364 473.987879a23.800242 23.800242 0 0 0 2.792727-47.414303l-2.792727-0.155152h-95.16994a23.800242 23.800242 0 0 0-2.792727 47.414303l2.792727 0.155152H446.836364zM446.836364 473.987879a23.800242 23.800242 0 0 0 2.761697-47.414303l-2.792728-0.155152h-95.138909a23.800242 23.800242 0 0 0-2.792727 47.414303l2.792727 0.155152H446.836364z"  horiz-adv-x="1024" />
      
      <glyph glyph-name="jxzyc" unicode="&#59166;" d="M967.121455 383.96897c0-262.764606-213.02303-475.787636-475.818667-475.787637C228.538182-91.818667 15.515152 121.173333 15.515152 383.96897S228.538182 859.756606 491.302788 859.756606c262.795636 0 475.818667-213.02303 475.818667-475.787636zM491.302788-60.788364C245.666909-60.788364 46.545455 138.333091 46.545455 383.96897S245.666909 828.726303 491.302788 828.726303 936.091152 629.604848 936.091152 384s-199.152485-444.757333-444.788364-444.757333z m0-31.030303c262.795636 0 475.818667 213.02303 475.818667 475.787637S754.098424 859.756606 491.302788 859.756606C228.538182 859.756606 15.515152 646.733576 15.515152 384s213.02303-475.787636 475.787636-475.787636zM660.666182 536.048485l47.724606-143.173818-211.719758-203.74497-211.719757 203.74497 47.755636 143.173818h327.990303z m42.852848 28.423757a31.030303 31.030303 0 0 1-29.416727 21.224728H319.270788a31.030303 31.030303 0 0 1-29.447758-21.224728l-55.699394-167.067151a31.030303 31.030303 0 0 1 7.943758-32.178424l233.099636-224.287031a31.030303 31.030303 0 0 1 43.039031 0l233.099636 224.287031a31.030303 31.030303 0 0 1 7.912727 32.178424l-55.699394 167.067151zM398.956606 473.553455a23.272727 23.272727 0 0 0 31.930182 7.974787l65.59806-39.377454 65.598061 39.377454a23.272727 23.272727 0 0 0 23.955394-39.904969l-77.575758-46.545455a23.272727 23.272727 0 0 0-23.955393 0l-77.575758 46.545455a23.272727 23.272727 0 0 0-7.974788 31.930182z"  horiz-adv-x="1024" />
      
      <glyph glyph-name="jrtgjh" unicode="&#59163;" d="M21.333333 885.333333m501.333334 0l0 0q501.333333 0 501.333333-501.333333l0 0q0-501.333333-501.333333-501.333333l0 0q-501.333333 0-501.333334 501.333333l0 0q0 501.333333 501.333334 501.333333ZM531.669333 662.101333c-170.368 0-308.458667-138.090667-308.458666-308.437333 0-89.109333 37.76-169.344 98.176-225.685333a20.565333 20.565333 0 0 0-28.053334-30.08 348.693333 348.693333 0 0 0-111.253333 255.765333c0 193.066667 156.522667 349.568 349.589333 349.568s349.568-156.522667 349.568-349.568c0-100.970667-42.837333-191.978667-111.253333-255.765333A20.565333 20.565333 0 1 0 741.930667 128a307.541333 307.541333 0 0 1 98.176 225.664c0 170.368-138.090667 308.48-308.437334 308.48zM531.669333 546.965333a193.28 193.28 0 0 1-193.28-193.301333 192.725333 192.725333 0 0 1 61.504-141.44 20.565333 20.565333 0 1 0-28.032-30.08 233.834667 233.834667 0 0 0-74.602666 171.52c0 129.472 104.96 234.410667 234.410666 234.410667 129.472 0 234.432-104.96 234.432-234.410667 0-67.712-28.736-128.746667-74.624-171.52a20.565333 20.565333 0 0 0-28.032 30.08 192.725333 192.725333 0 0 1 61.525334 141.44 193.28 193.28 0 0 1-193.28 193.28zM531.626667 431.808a78.144 78.144 0 0 1-53.248-135.317333 20.565333 20.565333 0 1 0-28.053334-30.08 119.253333 119.253333 0 1 0 162.624 0 20.565333 20.565333 0 1 0-28.032 30.08 78.144 78.144 0 0 1-53.269333 135.317333z"  horiz-adv-x="1045" />
      
      <glyph glyph-name="hqyjjs" unicode="&#59164;" d="M20.897959 875.102041m491.102041 0l0 0q491.102041 0 491.102041-491.102041l0 0q0-491.102041-491.102041-491.102041l0 0q-491.102041 0-491.102041 491.102041l0 0q0 491.102041 491.102041 491.102041ZM200.892082 613.877551c0 10.24 8.29649 18.53649 18.536489 18.53649h593.251266c10.24 0 18.53649-8.29649 18.53649-18.53649v-152.952163c0-7.836735-4.931918-14.837551-12.329796-17.449796a63.028245 63.028245 0 0 1-41.607837-59.475592c0-27.501714 17.428898-50.844735 41.607837-59.454694 7.397878-2.633143 12.329796-9.613061 12.329796-17.470694V154.122449c0-10.24-8.317388-18.53649-18.53649-18.53649H219.428571a18.53649 18.53649 0 0 0-18.536489 18.53649V307.09551c0 7.836735 4.931918 14.837551 12.329796 17.470694a63.028245 63.028245 0 0 1 41.586938 59.454694 63.028245 63.028245 0 0 1-41.586938 59.475592 18.53649 18.53649 0 0 0-12.329796 17.449796v152.973061z m37.072979-18.53649v-122.315755a100.184816 100.184816 0 0 0 53.937633-89.025306 100.184816 100.184816 0 0 0-53.916735-89.025306v-122.315755H794.122449V294.974694a100.163918 100.163918 0 0 0-53.916735 89.025306 100.163918 100.163918 0 0 0 53.916735 89.025306v122.315755H237.965061zM441.887347 536.283429l74.166857-74.166858 74.145959 74.166858 26.226939-26.226939-87.269878-87.24898a18.53649 18.53649 0 0 0-26.226938 0l-87.24898 87.24898 26.206041 26.226939zM408.534204 439.630367h215.04v-37.093877H408.555102v37.093877zM408.534204 348.16h215.04v-37.07298H408.555102v37.07298zM534.569796 439.630367v-215.04h-37.052082v215.04h37.07298z"  horiz-adv-x="1024" />
      
      <glyph glyph-name="qryjmx" unicode="&#59161;" d="M20.897959 875.102041m491.102041 0l0 0q491.102041 0 491.102041-491.102041l0 0q0-491.102041-491.102041-491.102041l0 0q-491.102041 0-491.102041 491.102041l0 0q0 491.102041 491.102041 491.102041ZM239.344327 381.910204c0 160.97698 127.373061 292.299755 285.466122 292.299755s285.466122-131.322776 285.466122-292.299755v-100.665469h-37.072979V381.910204c0 141.395592-111.657796 255.226776-248.393143 255.226776-136.735347 0-248.393143-113.831184-248.393143-255.226776v-100.665469h-37.072979V381.910204zM643.448163 542.949878c4.764735 0 9.195102-1.400163 12.914939-3.803429l1.316571-0.940408c47.856327-35.94449 74.250449-92.640653 75.546123-156.818286l0.062694-4.806531-47.459266-0.041795c-0.041796 50.301388-18.891755 93.601959-53.373387 121.166367l-3.260082 2.549551a23.719184 23.719184 0 0 0 14.23151 42.694531zM732.431673 310.898939a40.771918 40.771918 0 0 1-40.792816-40.792817v-88.962612c0-22.528 18.264816-40.792816 40.792816-40.792816h40.771919v170.527347h-40.771919z m-77.865795-40.792817a77.844898 77.844898 0 0 0 77.865795 77.865796h59.308409c10.24 0 18.53649-8.317388 18.536489-18.536489v-207.621225c0-10.24-8.29649-18.53649-18.536489-18.53649h-59.308409a77.844898 77.844898 0 0 0-77.865795 77.865796V270.106122zM791.76098 270.106122h29.654204c16.384 0 29.675102-13.270204 29.675102-29.633306v-29.675102a29.675102 29.675102 0 0 0-29.675102-29.654204h-29.675102v88.98351zM828.813061 182.083918c-2.361469-0.626939-4.848327-0.940408-7.397877-0.940408h-29.675102v88.98351h29.675102a29.675102 29.675102 0 0 0 29.675102-29.675102v-29.654204a29.675102 29.675102 0 0 0-22.256327-28.713796zM257.83902 270.106122H228.205714A29.675102 29.675102 0 0 1 198.530612 240.493714v-29.675102c0-16.363102 13.270204-29.654204 29.675102-29.654204h29.633306v88.98351zM257.83902 181.14351H228.205714A29.675102 29.675102 0 0 0 198.530612 210.818612v29.654204a29.675102 29.675102 0 0 0 29.675102 29.654204h29.675102v-88.98351zM239.344327 329.435429c0 10.24 8.29649 18.53649 18.536489 18.536489h59.308408a77.844898 77.844898 0 0 0 77.865796-77.865796v-88.962612a77.844898 77.844898 0 0 0-77.865796-77.865796H257.880816a18.53649 18.53649 0 0 0-18.536489 18.53649V329.456327z m37.072979-18.53649v-170.527347h40.771918a40.771918 40.771918 0 0 1 40.792817 40.75102V270.106122a40.771918 40.771918 0 0 1-40.771919 40.792817h-40.792816z"  horiz-adv-x="1024" />
      
      <glyph glyph-name="jlyhgl" unicode="&#59162;" d="M21.333333 885.333333m501.333334 0l0 0q501.333333 0 501.333333-501.333333l0 0q0-501.333333-501.333333-501.333333l0 0q-501.333333 0-501.333334 501.333333l0 0q0 501.333333 501.333334 501.333333ZM643.285333 722.048a20.842667 20.842667 0 0 0 28.458667-7.637333l76.885333-133.141334a20.842667 20.842667 0 0 0-18.069333-31.253333l-306.922667 0.341333a20.842667 20.842667 0 0 0-10.389333 38.869334l230.058667 132.821333z m-142.016-130.112l193.216-0.213333-48.405333 83.84-144.810667-83.626667zM569.813333 370.666667c0 58.474667 49.493333 104.170667 108.373334 104.170666h145.813333c11.52 0 20.842667-9.322667 20.842667-20.842666v-166.656c0-11.52-9.344-20.842667-20.842667-20.842667h-145.834667c-58.88 0-108.330667 45.696-108.330666 104.170667z m108.373334 62.506666c-37.802667 0-66.688-28.928-66.688-62.506666s28.885333-62.506667 66.666666-62.506667h125.013334v125.013333h-125.013334zM244.842667 545.664v-349.994667s0-0.085333 0.085333-0.298666a4.693333 4.693333 0 0 1 1.194667-1.386667c1.493333-1.237333 4.202667-2.474667 7.893333-2.474667h539.989333c3.669333 0 6.378667 1.237333 7.872 2.474667a4.693333 4.693333 0 0 1 1.194667 1.386667c0.106667 0.213333 0.106667 0.277333 0.085333 0.298666V545.664s0 0.085333-0.085333 0.298667a4.693333 4.693333 0 0 1-1.194667 1.386666 12.416 12.416 0 0 1-7.893333 2.474667H254.016c-3.648 0-6.378667-1.237333-7.872-2.474667a4.693333 4.693333 0 0 1-1.194667-1.386666c-0.106667-0.213333-0.106667-0.277333-0.085333-0.298667z m-41.685334 0c0 28.714667 26.496 45.845333 50.837334 45.845333H794.026667c24.362667 0 50.837333-17.130667 50.837333-45.845333v-349.994667c0-28.714667-26.474667-45.845333-50.837333-45.845333H253.994667c-24.362667 0-50.837333 17.130667-50.837334 45.845333V545.664z"  horiz-adv-x="1045" />
      
      <glyph glyph-name="icon-apiwd-normal" unicode="&#59160;" d="M91.178667 756.650667a38.4 38.4 0 0 0 37.376 29.568h687.146666a38.4 38.4 0 0 0 17.152-4.053334l-17.152-34.346666 17.152 34.346666 0.170667-0.085333 0.170667-0.085333 0.426666-0.213334a103.978667 103.978667 0 0 0 5.034667-2.816c3.072-1.792 7.125333-4.352 11.861333-7.68 9.472-6.698667 21.888-16.810667 34.304-30.805333 25.130667-28.245333 50.133333-72.362667 50.133334-134.144 0-61.738667-25.002667-105.856-50.133334-134.144a203.904 203.904 0 0 0-46.165333-38.442667 123.818667 123.818667 0 0 0-4.992-2.816l-0.426667-0.213333-0.213333-0.128h-0.085333s-0.085333-0.042667-17.237334 34.304l17.152-34.346667a38.4 38.4 0 0 0-17.152-4.053333H128.554667a38.4 38.4 0 0 0-17.493334 72.576l0.085334 0.042667 1.365333 0.768a127.189333 127.189333 0 0 1 27.733333 23.338666c15.317333 17.237333 30.72 43.861333 30.72 83.114667 0 39.296-15.402667 65.92-30.72 83.157333a127.189333 127.189333 0 0 1-27.733333 23.338667 45.525333 45.525333 0 0 1-1.365333 0.768h-0.085334a38.4 38.4 0 0 0-19.882666 43.050667z m129.152-47.232a199.68 199.68 0 0 0 27.434666-103.082667 199.68 199.68 0 0 0-27.434666-103.04h584.618666l1.194667 0.853333c5.674667 4.010667 13.482667 10.325333 21.290667 19.072 15.274667 17.237333 30.72 43.861333 30.72 83.114667 0 39.296-15.445333 65.92-30.72 83.157333a127.146667 127.146667 0 0 1-22.485334 19.925334H220.330667zM929.706667 10.965333a38.4 38.4 0 0 0-37.376-29.568H205.141333a38.4 38.4 0 0 0-17.152 4.053334l17.152 34.346666-17.152-34.346666-0.170666 0.085333-0.170667 0.085333-0.426667 0.256a75.52 75.52 0 0 0-5.034666 2.773334 204.074667 204.074667 0 0 0-46.165334 38.485333c-25.088 28.245333-50.090667 72.362667-50.090666 134.144 0 61.781333 25.002667 105.898667 50.090666 134.144a204.074667 204.074667 0 0 0 46.165334 38.485333 113.493333 113.493333 0 0 0 5.034666 2.773334l0.426667 0.256 0.170667 0.085333h0.085333s0.085333 0.085333 17.237333-34.261333l-17.152 34.346666a38.4 38.4 0 0 0 17.152 4.053334h687.189334a38.4 38.4 0 0 0 17.450666-72.618667h-0.085333a92.970667 92.970667 0 0 1-7.808-4.992 127.146667 127.146667 0 0 1-21.290667-19.157333c-15.317333-17.194667-30.72-43.818667-30.72-83.114667 0-39.253333 15.402667-65.92 30.72-83.114667a127.146667 127.146667 0 0 1 27.733334-23.338666l1.365333-0.768 0.085333-0.042667a38.4 38.4 0 0 0 19.925334-43.050667z m-129.194667 47.232a199.722667 199.722667 0 0 0-27.434667 103.082667c0 42.538667 11.861333 76.672 27.434667 103.082667H215.893333a127.018667 127.018667 0 0 1-22.485333-19.968c-15.274667-17.194667-30.72-43.818667-30.72-83.114667 0-39.253333 15.445333-65.92 30.72-83.114667a127.018667 127.018667 0 0 1 22.485333-19.968h584.618667z"  horiz-adv-x="1024" />
      
      <glyph glyph-name="dmmemo" unicode="&#59152;" d="M168.405333 709.418667a2.005333 2.005333 0 0 1-2.005333-2.005334v-646.741333c0-1.109333 0.853333-2.005333 2.005333-2.005333h687.146667a2.005333 2.005333 0 0 1 2.048 2.005333V586.154667a2.005333 2.005333 0 0 1-2.048 2.005333H512a38.4 38.4 0 0 0-29.525333 13.824L392.96 709.418667H168.405333zM89.6 707.413333c0 43.52 35.285333 78.805333 78.805333 78.805334h242.517334a38.4 38.4 0 0 0 29.525333-13.824l89.514667-107.434667h325.589333c43.52 0 78.848-35.285333 78.848-78.805333v-525.482667c0-43.52-35.285333-78.805333-78.848-78.805333H168.405333A78.805333 78.805333 0 0 0 89.6 60.672V707.413333zM565.674667 451.626667a38.4 38.4 0 0 0 54.314666 0l101.034667-101.077334a38.4 38.4 0 0 0 0-54.314666l-101.077333-101.034667a38.4 38.4 0 0 0-54.272 54.314667l73.898666 73.898666-73.898666 73.898667a38.4 38.4 0 0 0 0 54.314667zM458.24 451.626667a38.4 38.4 0 0 0 0-54.314667L384.426667 323.413333l73.898666-73.898666a38.4 38.4 0 0 0-54.314666-54.314667L302.933333 296.234667a38.4 38.4 0 0 0 0 54.314666l101.034667 101.077334a38.4 38.4 0 0 0 54.314667 0z"  horiz-adv-x="1024" />
      
      <glyph glyph-name="gnjs" unicode="&#59153;" d="M173.056 579.7376v-391.3216L512-7.168l338.8928 195.6352V579.7888l-338.944 195.6864-338.8416-195.6864zM480.0512 845.6192a64 64 0 0 0 64 0l351.6928-203.0592c19.8144-11.4176 32-32.5632 32-55.3984v-406.1184c0-22.8352-12.1856-44.032-32-55.3984l-351.744-203.0592a64 64 0 0 0-64 0l-351.6416 203.0592a64 64 0 0 0-32 55.3984V587.1616c0 22.8352 12.1856 43.9808 32 55.3984L480 845.6192zM550.4 624.128v-218.2144l221.3376-132.8128a38.4 38.4 0 1 0-39.4752-65.8944l-219.5456 131.7376-203.9808-131.072a38.4 38.4 0 1 0-41.472 64.5632l206.336 132.6592V624.128a38.4 38.4 0 1 0 76.8 0z"  horiz-adv-x="1024" />
      
      <glyph glyph-name="hqdl" unicode="&#59154;" d="M112.64 742.4v-665.6A92.16 92.16 0 0 1 204.8-15.36h307.2a40.96 40.96 0 0 1 0 81.92H204.8a10.24 10.24 0 0 0-10.24 10.24V742.4c0 5.632 4.5568 10.24 10.24 10.24h614.4c5.632 0 10.24-4.608 10.24-10.24v-332.8a40.96 40.96 0 0 1 81.92 0V742.4A92.16 92.16 0 0 1 819.2 834.56H204.8A92.16 92.16 0 0 1 112.64 742.4zM294.4 614.4a38.4 38.4 0 0 0 38.4 38.4h358.4a38.4 38.4 0 0 0 0-76.8h-358.4a38.4 38.4 0 0 0-38.4 38.4zM294.4 409.6a38.4 38.4 0 0 0 38.4 38.4h358.4a38.4 38.4 0 0 0 0-76.8h-358.4a38.4 38.4 0 0 0-38.4 38.4zM755.2-25.6v115.2H640a38.4 38.4 0 0 0 0 76.8h115.2V281.6a38.4 38.4 0 0 0 76.8 0v-115.2h115.2a38.4 38.4 0 0 0 0-76.8h-115.2V-25.6a38.4 38.4 0 0 0-76.8 0z"  horiz-adv-x="1024" />
      
      <glyph glyph-name="dzfdd" unicode="&#59155;" d="M127.853714 690.468571h768.292572v-157.915428H127.780571V690.468571z m0-594.651428V459.410286h768.292572v-363.593143H127.780571zM96.036571 786.285714a64 64 0 0 1-64-64v-658.285714c0-35.328 28.598857-64 64-64h831.926858a64 64 0 0 1 64.073142 64v658.285714a64 64 0 0 1-64.073142 64H96.036571zM623.908571 329.142857H710.948571a47.981714 47.981714 0 1 0 0-96.036571H623.908571a47.981714 47.981714 0 1 0 0 96.036571z"  horiz-adv-x="1024" />
      
      <glyph glyph-name="codg-" unicode="&#59156;" d="M145.9712 28.0064L226.4064 711.68h571.0848l80.4352-683.6736a20.48 20.48 0 0 0-20.3264-22.8864H166.2976a20.48 20.48 0 0 0-20.3264 22.8864z m2.2528 720.384L64.6144 37.5808A102.4 102.4 0 0 1 166.2976-76.8H857.6a102.4 102.4 0 0 1 101.6832 114.3808L875.6736 748.3904A51.2 51.2 0 0 1 824.832 793.6H199.0656a51.2 51.2 0 0 1-50.8416-45.2096z m194.56-273.3056a38.4 38.4 0 1 1-71.2704-28.5696c16.9472-42.3936 52.0192-79.872 93.5424-106.6496 41.8304-26.9824 93.3888-45.1072 146.6368-45.4656 98.816-0.6656 196.2496 62.8736 239.4112 149.248a38.4 38.4 0 1 1-68.7104 34.304c-30.72-61.5424-102.1952-107.2128-170.1888-106.752-36.5056 0.256-74.0352 12.9024-105.5232 33.2288-31.8464 20.48-54.272 46.6432-63.8464 70.656z"  horiz-adv-x="1024" />
      
      <glyph glyph-name="dlcp" unicode="&#59157;" d="M525.2096 870.4a38.4 38.4 0 0 0 38.4-38.4v-128a38.4 38.4 0 0 0-76.8 0v128a38.4 38.4 0 0 0 38.4 38.4z m-16.0256-300.8a233.5744 233.5744 0 0 1-96.1536-446.5664l22.528-10.24V-25.6h147.2512v138.4448l22.528 10.24a233.6256 233.6256 0 0 1-96.1536 446.5152z m-310.3744-233.6256a310.4256 310.4256 0 1 0 460.8-271.5648v-96.4096c0-38.912-31.5392-70.4-70.4-70.4H429.2096c-38.912 0-70.4 31.5392-70.4 70.4v96.4096a310.272 310.272 0 0 0-160 271.616zM123.136 616.3456a38.4 38.4 0 1 1-54.272-54.272L159.3344 471.552a38.4 38.4 0 1 1 54.3232 54.272L123.136 616.3456z m858.5216 0a38.4 38.4 0 0 0 0-54.272L891.136 471.552a38.4 38.4 0 1 0-54.272 54.272l90.4704 90.5216a38.4 38.4 0 0 0 54.272 0zM512 204.8a76.8 76.8 0 1 1 0 153.6 76.8 76.8 0 0 1 0-153.6z"  horiz-adv-x="1024" />
      
      <glyph glyph-name="ddgl" unicode="&#59158;" d="M839.68 5.12V581.9904L694.1184 737.28H235.52v-732.16h604.16zM204.8 819.2h502.6304a51.2 51.2 0 0 0 37.376-16.1792l162.9696-173.8752a51.2 51.2 0 0 0 13.824-34.9696V-25.6a51.2 51.2 0 0 0-51.2-51.2H204.8a51.2 51.2 0 0 0-51.2 51.2V768a51.2 51.2 0 0 0 51.2 51.2zM345.6 435.2a38.4 38.4 0 0 0 38.4 38.4h307.2a38.4 38.4 0 0 0 0-76.8h-307.2A38.4 38.4 0 0 0 345.6 435.2zM345.6 230.4a38.4 38.4 0 0 0 38.4 38.4h307.2a38.4 38.4 0 0 0 0-76.8h-307.2a38.4 38.4 0 0 0-38.4 38.4z"  horiz-adv-x="1024" />
      
      <glyph glyph-name="cjwt" unicode="&#59159;" d="M236.8 25.6h550.4V691.2H236.8v-665.6z m-76.8 678.4c0 35.328 28.672 64 64 64h576c35.328 0 64-28.672 64-64v-691.2c0-35.328-28.672-64-64-64H224c-35.328 0-64 28.672-64 64V704zM320 544a32 32 0 1 1 0-64h256a32 32 0 1 1 0 64h-256z m-32-192c0 17.664 14.336 32 32 32h336.0256a32 32 0 1 0 0-64H320a32 32 0 0 0-32 32z m32-128a32 32 0 1 1 0-64h336.0256a32 32 0 1 1 0 64H320z"  horiz-adv-x="1024" />
      
      <glyph glyph-name="shezhi" unicode="&#59146;" d="M257.28 771.072a48 48 0 0 0 41.408 23.68h426.688a48 48 0 0 0 41.344-23.68l213.376-362.624a48 48 0 0 0 0-48.64l-213.376-362.752a48 48 0 0 0-41.344-23.68H298.688a48 48 0 0 0-41.344 23.68L44.032 359.744a48 48 0 0 0 0 48.64L257.28 771.136z m68.864-72.32L141.056 384.064l185.088-314.624h371.84L882.944 384l-185.088 314.688H326.144zM357.376 384.064a154.688 154.688 0 1 0 309.312 0 154.688 154.688 0 0 0-309.312 0z m154.688 58.688a58.688 58.688 0 1 1 0-117.312 58.688 58.688 0 0 1 0 117.312z"  horiz-adv-x="1024" />
      
      <glyph glyph-name="tcgl" unicode="&#59147;" d="M512 750.1824l317.1328-183.0912v-366.1824l-317.184-183.1424-317.1328 183.1424V567.0912L512 750.1824z m25.6 79.872a51.2 51.2 0 0 1-51.2 0L138.4448 629.1456a51.2 51.2 0 0 1-25.6-44.3392v-401.7152a51.2 51.2 0 0 1 25.6-44.3392L486.4-61.952a51.2 51.2 0 0 1 51.2 0l347.904 200.8064a51.2 51.2 0 0 1 25.6 44.3392V584.8576a51.2 51.2 0 0 1-25.6 44.3392L537.5488 829.952zM512 396.8a38.4 38.4 0 0 0 38.4-38.4v-358.4a38.4 38.4 0 0 0-76.8 0v358.4a38.4 38.4 0 0 0 38.4 38.4zM121.344 609.536a38.4 38.4 0 0 0 53.0432 11.5712L512 403.968l337.664 217.088a38.4 38.4 0 0 0 41.472-64.6144l-358.4-230.4a38.4 38.4 0 0 0-41.472 0l-358.4 230.4a38.4 38.4 0 0 0-11.5712 53.0432z"  horiz-adv-x="1024" />
      
      <glyph glyph-name="quit" unicode="&#59148;" d="M960 644.48A186.88 186.88 0 0 1 773.76 832H515.2a56.96 56.96 0 0 1-56.896-57.216 56.96 56.96 0 0 1 56.832-57.152h258.624c40.128 0 72.64-32.704 72.64-73.088v-521.088c0-40.32-32.512-73.088-72.64-73.088H514.944a56.96 56.96 0 0 1-56.768-57.152 56.96 56.96 0 0 1 56.768-57.216h258.816A186.88 186.88 0 0 1 960 123.52V644.48zM328.32 620.928a56.576 56.576 0 0 1-80.384 0L99.584 471.68a122.88 122.88 0 0 1 0-172.992l148.352-149.376a56.576 56.576 0 0 1 80.384 0 57.472 57.472 0 0 1 0 80.896L179.968 379.456a8 8 0 0 0 0 11.264L328.32 540.032a57.472 57.472 0 0 1 0 80.896zM744.192 386.176a56.96 56.96 0 0 1-56.832 57.216H126.592a56.96 56.96 0 0 1-56.768-57.216 56.96 56.96 0 0 1 56.768-57.216h560.768c31.36 0 56.832 25.6 56.832 57.216z"  horiz-adv-x="1024" />
      
      <glyph glyph-name="notification" unicode="&#59149;" d="M818.761143 577.462857c7.168-33.133714 10.971429-66.925714 14.848-100.717714 3.145143-27.501714 6.217143-55.076571 11.190857-82.285714l9.801143-53.76c0-28.233143 25.014857-50.029714 50.468571-63.634286 32.768-17.261714 54.930286-50.907429 54.930286-89.6 0-56.466286-47.177143-91.501714-105.398857-91.501714H169.398857c-58.221714 0-105.398857 35.108571-105.398857 91.428571 0 38.765714 22.162286 72.411429 54.857143 89.746286 25.6 13.531429 50.541714 35.328 50.541714 63.561143l9.801143 53.76c4.973714 27.209143 8.045714 54.784 11.190857 82.285714 3.803429 33.792 7.68 67.584 14.848 100.717714 24.868571 114.102857 99.766857 207.945143 243.053714 229.156572a63.780571 63.780571 0 0 0 63.634286 57.344c33.353143 0 60.708571-25.161143 63.780572-57.344 143.286857-21.211429 218.258286-115.053714 243.053714-229.156572zM285.769143 465.92c-3.072-27.062857-6.582857-57.929143-12.141714-88.502857l-8.630858-47.542857a153.6 153.6 0 0 0-39.424-89.965715c-19.382857-22.016-42.569143-37.302857-61.732571-47.542857a43.154286 43.154286 0 0 1 5.558857-0.365714h685.202286a43.154286 43.154286 0 0 1 5.558857 0.365714 220.598857 220.598857 0 0 0-61.805714 47.542857 153.6 153.6 0 0 0-39.350857 89.965715l-8.630858 47.542857c-5.558857 30.573714-9.069714 61.44-12.141714 88.502857l-1.024 9.435429c-3.510857 30.646857-6.875429 56.905143-12.288 81.846857-10.605714 48.859429-32.036571 86.747429-62.537143 112.493714C632.466286 694.857143 585.874286 715.117714 512 715.117714c-73.947429 0-120.466286-20.260571-150.381714-45.494857-30.500571-25.746286-51.931429-63.634286-62.537143-112.493714-5.412571-24.868571-8.777143-51.2-12.214857-81.92l-1.097143-9.362286z m374.052571-462.921143c12.434286 29.988571-17.554286 55.296-49.444571 48.932572l-48.201143-9.654858a256 256 0 0 0-100.425143 0l-48.128 9.654858c-31.890286 6.363429-61.878857-18.870857-49.444571-48.932572a160.036571 160.036571 0 0 1 295.643428 0z"  horiz-adv-x="1024" />
      
      <glyph glyph-name="lqgl" unicode="&#59150;" d="M133.12 660.48v-111.3088a184.32 184.32 0 0 0 0-330.3424V107.52h757.76v111.3088a184.32 184.32 0 0 0 0 330.3424V660.48H133.12zM972.8 486.4a102.4 102.4 0 1 1 0-204.8v-204.8a51.2 51.2 0 0 0-51.2-51.2H102.4a51.2 51.2 0 0 0-51.2 51.2v204.8a102.4 102.4 0 1 1 0 204.8V691.2a51.2 51.2 0 0 0 51.2 51.2h819.2a51.2 51.2 0 0 0 51.2-51.2v-204.8zM371.2 486.4c0-21.1968 17.2032-38.4 38.4-38.4h204.8a38.4 38.4 0 0 1 0 76.8H409.6a38.4 38.4 0 0 1-38.4-38.4zM409.6 320a38.4 38.4 0 0 1 0-76.8h204.8a38.4 38.4 0 0 1 0 76.8H409.6z"  horiz-adv-x="1024" />
      
      <glyph glyph-name="ipgl" unicode="&#59151;" d="M722.6368 192.256c-60.8256-68.8128-137.4208-127.7952-210.6368-173.568-73.216 45.7728-149.8112 104.7552-210.6368 173.568C228.9664 274.0736 184.32 363.3152 184.32 456.704 184.32 653.4656 318.5664 788.48 512 788.48c193.4336 0 327.68-135.0144 327.68-331.7248 0-93.44-44.6464-182.6304-117.0432-264.4992zM512-76.8c179.2 102.4 409.6 292.4544 409.6 533.5552S751.5136 870.4 512 870.4 102.4 697.856 102.4 456.7552C102.4 215.6544 332.8 25.6 512-76.8z m233.6256 553.984c0 21.1968-4.9664 40.1408-14.848 56.832a98.304 98.304 0 0 1-43.52 39.424c-19.456 9.5744-43.008 14.336-70.656 14.336h-131.584V230.4h71.68v137.216h59.904c29.3376 0 53.5552 5.12 72.704 15.36 19.456 10.24 33.5872 23.7568 42.496 40.448 9.216 16.7424 13.824 34.6624 13.824 53.76z m-132.096-51.712h-56.832V529.408h56.832c38.912 0 58.368-17.408 58.368-52.224 0-16.384-4.8128-29.184-14.336-38.4-9.5744-8.8576-24.2688-13.312-44.032-13.312zM414.1568 230.4V587.776h-71.68V230.4h71.68z"  horiz-adv-x="1024" />
      
      <glyph glyph-name="tishi" unicode="&#59138;" d="M512 32a352 352 0 1 0 0 704 352 352 0 0 0 0-704zM512-64A448 448 0 1 1 512 832a448 448 0 0 1 0-896zM464 192a48 48 0 1 1 96 0V416a48 48 0 1 1-96 0V192z m45.632 452.48a48 48 0 1 1 0-96 48 48 0 0 1 0 96z"  horiz-adv-x="1024" />
      
      <glyph glyph-name="tgfl" unicode="&#59139;" d="M744.448 310.2208l41.1136-7.2704a89.7536 89.7536 0 0 1 105.2672 85.76V671.4368a89.7536 89.7536 0 0 1-105.3184 85.76l-41.1136-7.2704a151.7568 151.7568 0 0 1-90.2656-138.752V449.024c0-61.952 37.12-115.2 90.2656-138.8032z m-142.848 25.1904a232.6016 232.6016 0 0 0-29.3888 113.6128V611.1232c0 41.216 10.6496 79.9744 29.3888 113.6128L156.0576 646.0928A89.7536 89.7536 0 0 1 81.92 557.7216v-55.296c0-43.52 31.232-80.7936 74.1376-88.3712l445.5424-78.6432z m119.7056-104.2944l-349.3888 61.6448v-177.5616a157.3888 157.3888 0 0 0-314.7264 0v259.2768A171.52 171.52 0 0 0 0 502.4256v55.296a171.6736 171.6736 0 0 0 141.824 169.0624l579.4816 102.2464A233.0624 233.0624 0 0 0 805.888 844.8C898.048 844.8 972.8 770.048 972.8 677.888v-295.6288c0-92.16-74.752-166.912-166.912-166.912-29.8496 0-58.368 5.5808-84.5824 15.7696zM139.1616 317.44v-202.24a75.4688 75.4688 0 0 1 150.8352 0v174.7968l-150.8864 27.4432z"  horiz-adv-x="1024" />
      
      <glyph glyph-name="tctj" unicode="&#59140;" d="M960.512 408.604444a85.105778 85.105778 0 0 1-85.105778 85.105778h-213.902222c18.602667 59.079111 50.915556 193.792-32.113778 283.676445-55.580444 60.216889-107.690667-8.078222-107.690666-8.078223s56.689778-243.2-180.707556-350.805333v-402.801778h449.905778a85.105778 85.105778 0 0 1 85.105778 85.105778v7.111111a85.048889 85.048889 0 0 1 45.198222 75.178667v7.907555c0 9.301333-1.507556 18.204444-4.209778 26.481778a84.992 84.992 0 0 1 33.223111 67.413334v7.907555a84.764444 84.764444 0 0 1-14.620444 47.587556c15.416889 15.416889 25.031111 36.693333 25.031111 60.216889v7.964444h-0.113778zM370.204444-32.483556H95.488c-15.701333 0-28.501333 12.8-28.501333 28.472889V471.694222c0 15.701333 12.8 28.501333 28.501333 28.501334h274.716444c15.701333 0 28.501333-12.8 28.501334-28.501334V-3.982222c0-15.701333-12.8-28.501333-28.501334-28.501334zM960.512 408.604444a85.105778 85.105778 0 0 1-85.105778 85.077334h-83.000889c1.308444-13.880889 1.991111-27.989333 1.991111-42.296889 0-208.782222-141.795556-384.398222-334.279111-435.768889h330.808889a85.105778 85.105778 0 0 1 85.077334 85.077333v7.111111a85.048889 85.048889 0 0 1 45.226666 75.178667v7.907556c0 9.301333-1.507556 18.204444-4.209778 26.510222a84.992 84.992 0 0 1 33.194667 67.413333v7.879111a84.764444 84.764444 0 0 1-14.592 47.616c15.388444 15.36 25.002667 36.693333 25.002667 60.188445v8.106666h-0.113778zM349.098667 72.192c0-25.6-20.707556-46.307556-46.307556-46.307556-25.6 0-46.279111 20.707556-46.279111 46.307556a46.250667 46.250667 0 1 0 92.586667 0zM849.976889 809.102222c-3.612444 10.496-9.500444 10.496-12.999111 0l-20.110222-59.306666c-3.584-10.524444-15.075556-21.987556-25.6-25.6l-58.88-19.996445c-10.524444-3.612444-10.524444-9.500444 0-13.084444l58.481777-20.423111c10.524444-3.584 22.016-15.189333 25.6-25.685334l20.394667-59.420444c3.612444-10.496 9.500444-10.496 12.999111 0l19.911111 59.107555c3.498667 10.524444 14.990222 22.101333 25.486222 25.713778l59.818667 20.48c10.496 3.612444 10.496 9.386667 0 12.999111l-58.794667 19.911111c-10.524444 3.612444-22.101333 14.990222-25.713777 25.486223l-20.593778 59.818666z"  horiz-adv-x="1024" />
      
      <glyph glyph-name="zhxx" unicode="&#59141;" d="M686.08 588.8a174.08 174.08 0 1 1-348.16 0 174.08 174.08 0 0 1 348.16 0zM768 588.8A256 256 0 1 0 256 588.8a256 256 0 0 0 512 0zM168.96-76.8c0 101.9392 38.3488 180.1728 98.56 233.3184C328.3456 210.176 414.208 240.64 512 240.64c97.792 0 183.6032-30.464 244.4288-84.1216C816.64 103.3728 855.04 25.1392 855.04-76.8a40.96 40.96 0 0 1 81.92 0c0 124.2624-47.616 225.28-126.3104 294.7584-78.1312 68.9664-184.32 104.6016-298.6496 104.6016s-220.4672-35.6352-298.5984-104.6016C134.6048 148.48 86.9888 47.4624 86.9888-76.8a40.96 40.96 0 0 1 81.92 0z"  horiz-adv-x="1024" />
      
      <glyph glyph-name="zhgl-svg" unicode="&#59142;" d="M503.552 786.432a12.8 12.8 0 0 0 16.896 0l358.4-313.6512a12.8 12.8 0 0 0 4.352-9.6256V0a12.8 12.8 0 0 0-12.8-12.8h-204.8V281.6a51.2 51.2 0 0 1-51.2 51.2H409.6a51.2 51.2 0 0 1-51.2-51.2v-294.4H153.6a12.8 12.8 0 0 0-12.8 12.8V463.1552a12.8 12.8 0 0 0 4.352 9.6256l358.4 313.6z m67.4304 57.7536a89.6 89.6 0 0 1-117.9648 0l-358.4-313.6a89.6 89.6 0 0 1-30.6176-67.4304V0c0-49.5104 40.1408-89.6 89.6-89.6h716.8a89.6 89.6 0 0 1 89.6 89.6V463.1552a89.6 89.6 0 0 1-30.6176 67.4304l-358.4 313.6zM435.2 0v256h153.6v-256h-153.6z"  horiz-adv-x="1024" />
      
      <glyph glyph-name="weirenzheng" unicode="&#59143;" d="M960 384A448 448 0 1 0 64 384a448 448 0 0 0 896 0zM560 608a48 48 0 0 1-96 0V320a48 48 0 0 1 96 0V608z m-48-512a64 64 0 1 1 0 128 64 64 0 0 1 0-128z"  horiz-adv-x="1024" />
      
      <glyph glyph-name="rmwz" unicode="&#59144;" d="M876.999111-128H203.889778C154.311111-128 113.777778-90.055111 113.777778-43.662222V811.662222C113.777778 858.055111 154.311111 896 203.889778 896h673.109333C926.577778 896 967.111111 858.055111 967.111111 811.662222V-43.804444C967.111111-90.055111 926.577778-128 876.999111-128zM967.111111 640V795.818667C967.111111 835.271111 929.848889 867.555556 884.337778 867.555556H196.551111C151.04 867.555556 113.777778 835.271111 113.777778 795.818667V640h853.333333zM967.111111 668.444444V824.263111C967.111111 863.715556 929.848889 896 884.337778 896H196.551111C151.04 896 113.777778 863.715556 113.777778 824.263111V668.444444h853.333333zM217.6 571.790222h259.811556v-44.8H217.6v44.8zM217.6 464.213333h439.011556v-44.828444H217.6V464.213333zM217.6 356.693333h259.811556v-44.8H217.6V356.693333zM217.6 249.173333h439.011556v-44.771555H217.6V249.173333zM227.555556 782.222222a28.444444 28.444444 0 1 1 56.888888 0 28.444444 28.444444 0 0 1-56.888888 0zM341.333333 782.222222a28.444444 28.444444 0 1 1 56.888889 0 28.444444 28.444444 0 0 1-56.888889 0zM455.111111 782.222222a28.444444 28.444444 0 1 1 56.888889 0 28.444444 28.444444 0 0 1-56.888889 0zM797.297778 156.444444a112.952889 112.952889 0 1 1 0-225.934222 112.952889 112.952889 0 0 1 0 225.934222z m-6.257778-164.494222l-6.769778-6.570666a32.142222 32.142222 0 0 0-22.385778-8.96c-8.106667 0-16.213333 2.986667-22.357333 8.96a30.037333 30.037333 0 0 0 0 43.463111l24.974222 24.177777c15.530667 15.018667 33.365333 17.180444 45.454223 5.489778a7.964444 7.964444 0 0 0 0-11.434666 8.448 8.448 0 0 0-11.719112-0.056889c-7.111111 6.883556-16.839111-0.483556-22.016-5.518223l-25.002666-24.177777a14.136889 14.136889 0 0 1 0-20.451556c5.888-5.688889 15.445333-5.688889 21.333333 0l6.769778 6.570667c3.271111 3.157333 8.533333 3.128889 11.776-0.028445a7.964444 7.964444 0 0 0-0.028445-11.463111z m64 61.923556l-26.624-25.770667c-8.248889-7.964444-16.896-12.003556-25.116444-12.003555a26.595556 26.595556 0 0 0-18.659556 8.078222 7.964444 7.964444 0 0 0-0.028444 11.491555 8.448 8.448 0 0 0 11.747555 0c2.417778-2.332444 8.163556-7.879111 20.337778 3.925334l26.652444 25.770666a14.08 14.08 0 0 1 0 20.48c-5.319111 5.12-13.454222 7.623111-19.683555 1.592889l-8.448-8.192c-3.242667-3.128889-8.533333-3.128889-11.747556 0.056889a7.964444 7.964444 0 0 0 0.056889 11.463111l8.448 8.192c12.003556 11.605333 30.151111 10.922667 43.093333-1.621333a30.065778 30.065778 0 0 0 0-43.463111z"  horiz-adv-x="1024" />
      
      <glyph glyph-name="smrz" unicode="&#59145;" d="M512 158.72a276.48 276.48 0 1 0 0 552.96 276.48 276.48 0 0 0 0-552.96z m0-81.92a358.4 358.4 0 1 1 0 716.8 358.4 358.4 0 0 1 0-716.8zM614.4 435.2a102.4 102.4 0 1 0-204.8 0 102.4 102.4 0 0 0 204.8 0zM206.6432 263.3216l-132.8128-175.104a35.84 35.84 0 0 1 25.344-57.3952l109.1584-9.8304 45.2096-108.032a35.84 35.84 0 0 1 61.6448-7.8336l132.8128 175.104a35.84 35.84 0 0 1-6.912 50.176l-184.2176 139.776a35.84 35.84 0 0 1-50.2272-6.8608z m35.4304-71.8848l127.1808-96.4608-73.5744-96.9728-29.5424 70.6048a35.84 35.84 0 0 1-29.8496 21.8624l-66.2528 5.9392 72.0384 95.0272zM837.0688 263.3216a35.84 35.84 0 0 1-50.2272 6.8608c-55.296-41.8816-128.9728-97.792-184.2176-139.776a35.84 35.84 0 0 1-6.912-50.176l132.8128-175.104a35.84 35.84 0 0 1 61.6448 7.8336l45.2096 108.032 109.1584 9.8304a35.84 35.84 0 0 1 25.344 57.344l-132.8128 175.104z m-35.4816-71.8848l72.0896-95.0272-66.2528-5.9392a35.84 35.84 0 0 1-29.8496-21.8624l-29.5424-70.6048-73.5744 97.024 127.1296 96.4096z"  horiz-adv-x="1024" />
      
      <glyph glyph-name="apitq-normal" unicode="&#59133;" d="M490.666667 708.266667a345.6 345.6 0 1 1 345.6-345.6 38.4 38.4 0 0 0 76.8 0c0-233.301333-189.141333-422.4-422.4-422.4-233.301333 0-422.4 189.098667-422.4 422.4s189.098667 422.4 422.4 422.4a38.4 38.4 0 1 0 0-76.8zM684.885333 520.96a38.4 38.4 0 0 0 6.741334-53.888c-75.818667-97.493333-136.576-154.24-205.397334-184.832-68.394667-30.421333-140.288-32.64-230.229333-32.64a38.4 38.4 0 0 0 0 76.8c91.306667 0 147.498667 3.114667 199.04 26.026667 51.2 22.741333 102.442667 67.328 175.957333 161.834666a38.4 38.4 0 0 0 53.888 6.698667zM452.266667 490.666667a38.4 38.4 0 0 0 38.4 38.4h170.666666a38.4 38.4 0 0 0 38.4-38.4v-170.666667a38.4 38.4 0 0 0-76.8 0v132.266667h-132.266666a38.4 38.4 0 0 0-38.4 38.4zM661.333333 827.733333a38.4 38.4 0 0 0 38.4-38.4v-96a38.4 38.4 0 1 0-76.8 0V789.333333a38.4 38.4 0 0 0 38.4 38.4zM793.6 533.333333a38.4 38.4 0 0 1 38.4-38.4h96a38.4 38.4 0 1 1 0 76.8H832a38.4 38.4 0 0 1-38.4-38.4zM899.413333 773.802667a38.4 38.4 0 0 0 0-54.272l-82.944-82.986667a38.4 38.4 0 0 0-54.314666 54.314667l82.986666 82.944a38.4 38.4 0 0 0 54.314667 0z"  horiz-adv-x="1024" />
      
      <glyph glyph-name="bzzx-normal" unicode="&#59134;" d="M183.125333 712.832A463.744 463.744 0 0 0 512 849.066667c128.426667 0 244.693333-52.096 328.832-136.234667l-27.136-27.136 27.136 27.136A463.744 463.744 0 0 0 977.066667 384c0-128.426667-52.096-244.736-136.234667-328.832A463.744 463.744 0 0 0 512-81.066667c-128.426667 0-244.736 52.096-328.874667 136.234667l27.178667 27.136-27.178667-27.136A463.744 463.744 0 0 0 46.933333 384c0 128.426667 52.053333 244.736 136.192 328.832zM512 772.266667a386.944 386.944 0 0 1-274.56-113.706667A386.944 386.944 0 0 1 123.733333 384a386.944 386.944 0 0 1 113.706667-274.56A386.944 386.944 0 0 1 512-4.266667a386.944 386.944 0 0 1 274.517333 113.706667A386.944 386.944 0 0 1 900.266667 384a386.986667 386.986667 0 0 1-113.749334 274.56A386.944 386.944 0 0 1 512 772.266667zM345.6 498.688a166.4 166.4 0 1 0 204.8-161.962667v-51.370666a38.4 38.4 0 0 0-76.8 0v85.333333a38.4 38.4 0 0 0 38.4 38.4 89.6 89.6 0 1 1-89.6 89.6 38.4 38.4 0 1 0-76.8 0zM512 93.354667a53.333333 53.333333 0 1 1 0 106.666666 53.333333 53.333333 0 0 1 0-106.666666z"  horiz-adv-x="1024" />
      
      <glyph glyph-name="a-03" unicode="&#59135;" d="M0 896m512 0l0 0q512 0 512-512l0 0q0-512-512-512l0 0q-512 0-512 512l0 0q0 512 512 512ZM673.6 576.256c45.728 0 78.144-8.352 97.28-25.088 19.456-16.384 27.808-41.28 25.088-74.752l-1.536-17.408c-3.424-32.416-20.832-55.136-52.256-68.096 30.4-11.264 45.568-34.976 45.568-71.168 0-3.072-0.32-8.704-1.024-16.896l-1.504-14.336c-4.48-33.44-18.784-58.016-43.04-73.728-23.872-15.36-58.688-23.04-104.448-23.04a853.12 853.12 0 0 0-95.712 6.144l7.168 56.32a1967.36 1967.36 0 0 1 49.664-5.12c12.288-0.672 27.456-1.024 45.568-1.024 27.296 0 46.912 3.584 58.88 10.752 11.936 7.168 19.104 18.784 21.472 34.816l1.568 14.336c0.32 2.048 0.48 4.96 0.48 8.704 0 15.36-4.928 26.464-14.816 33.28-9.92 6.816-25.792 10.4-47.616 10.752h-69.664l6.688 54.784h68.576c19.456 0.32 34.496 3.744 45.088 10.24 10.56 6.816 17.056 17.92 19.424 33.28l1.568 16.384 0.48 6.144a31.36 31.36 0 0 1-15.36 28.16c-9.888 6.816-27.808 10.24-53.76 10.24-31.712 0-62.432-1.184-92.16-3.584l7.168 57.344c28.352 1.696 58.72 2.56 91.136 2.56zM409.312 578.304c37.888-0.32 66.048-9.92 84.48-28.672 18.784-18.784 28.16-47.616 28.16-86.528 0-9.92-0.832-22.176-2.56-36.864l-10.24-84.48c-6.464-51.872-22.016-90.112-46.592-114.688-24.224-24.576-58.016-37.024-101.376-37.376h-20.48c-38.208 0.32-66.72 9.728-85.504 28.16-18.432 18.432-27.648 47.264-27.648 86.528 0 10.24 0.864 22.72 2.56 37.376l10.24 84.48c12.992 100.704 63.328 151.36 151.04 152.064h17.92zM290.56 341.76a224.64 224.64 0 0 1-2.048-30.72c0-22.528 4.448-38.912 13.312-49.152 9.216-10.24 24.416-15.52 45.568-15.872h20.992c24.256 0.32 42.496 7.52 54.784 21.504 12.288 14.336 20.672 39.072 25.088 74.24l10.752 84.48a228.48 228.48 0 0 1 2.048 31.232c0 22.528-4.608 38.72-13.824 48.64-9.216 10.24-24.224 15.52-45.056 15.872h-20.992c-16.384-0.32-29.856-3.584-40.448-9.728-10.56-5.792-19.104-15.68-25.6-29.696-6.144-13.664-10.752-32.416-13.824-56.32l-10.752-84.48z"  horiz-adv-x="1024" />
      
      <glyph glyph-name="a-02" unicode="&#59136;" d="M0 896m512 0l0 0q512 0 512-512l0 0q0-512-512-512l0 0q-512 0-512 512l0 0q0 512 512 512ZM741.92 465.152c1.696 17.408-2.72 30.88-13.312 40.448-10.24 9.568-26.784 14.336-49.664 14.336-32.768 0-63.808-2.56-93.184-7.68l7.168 57.856a748.928 748.928 0 0 0 92.672 6.144c39.616 0 68.96-9.216 88.064-27.648 19.456-18.432 29.184-41.824 29.184-70.144 0-5.44-0.16-9.568-0.512-12.288-2.72-21.504-8.544-39.424-17.408-53.76a125.056 125.056 0 0 0-35.328-36.864c-14.688-9.92-34.144-20.32-58.368-31.232-17.408-7.84-31.904-15.52-43.52-23.04-11.264-7.52-20.8-17.248-28.672-29.184-7.84-11.936-12.96-26.624-15.36-44.032h169.472l-6.656-56.32h-229.376l7.68 56.32c5.44 34.816 18.944 63.488 40.448 86.016a231.712 231.712 0 0 0 76.8 53.248 621.376 621.376 0 0 1 43.52 20.992c9.568 5.44 17.6 12.64 24.064 21.504 6.496 8.864 10.56 20.64 12.288 35.328zM402.88 578.304c37.888-0.32 66.048-9.92 84.48-28.672 18.784-18.784 28.16-47.616 28.16-86.528 0-9.92-0.832-22.176-2.56-36.864l-10.24-84.48c-6.496-51.872-22.016-90.112-46.592-114.688-24.224-24.576-58.016-37.024-101.376-37.376h-20.48c-38.24 0.32-66.72 9.728-85.504 28.16-18.432 18.432-27.648 47.264-27.648 86.528 0 10.24 0.864 22.72 2.56 37.376l10.24 84.48c12.96 100.704 63.328 151.36 151.04 152.064h17.92zM284.096 341.76a224.64 224.64 0 0 1-2.048-30.72c0-22.528 4.448-38.912 13.312-49.152 9.216-10.24 24.416-15.52 45.568-15.872h20.992c24.256 0.32 42.496 7.52 54.784 21.504 12.288 14.336 20.672 39.072 25.088 74.24l10.752 84.48c1.376 9.92 2.048 20.32 2.048 31.232 0 22.528-4.608 38.72-13.824 48.64-9.216 10.24-24.224 15.52-45.056 15.872h-20.992c-16.384-0.32-29.856-3.584-40.448-9.728-10.56-5.792-19.104-15.68-25.6-29.696-6.144-13.664-10.752-32.416-13.824-56.32l-10.752-84.48z"  horiz-adv-x="1024" />
      
      <glyph glyph-name="a-01" unicode="&#59137;" d="M0 896m512 0l0 0q512 0 512-512l0 0q0-512-512-512l0 0q-512 0-512 512l0 0q0 512 512 512ZM606.016 463.104l7.68 60.928 102.4 52.224h51.2l-47.136-384.512h-60.384l38.912 316.416-92.672-45.056zM438.496 578.304c37.888-0.32 66.048-9.92 84.48-28.672 18.784-18.784 28.16-47.616 28.16-86.528 0-9.92-0.832-22.176-2.56-36.864l-10.24-84.48c-6.464-51.872-22.016-90.112-46.592-114.688-24.224-24.576-58.016-37.024-101.376-37.376h-20.48c-38.208 0.32-66.72 9.728-85.504 28.16-18.432 18.432-27.648 47.264-27.648 86.528 0 10.24 0.864 22.72 2.56 37.376l10.24 84.48c12.992 100.704 63.36 151.36 151.04 152.064h17.92zM319.712 341.76a224.64 224.64 0 0 1-2.048-30.72c0-22.528 4.48-38.912 13.312-49.152 9.216-10.24 24.416-15.52 45.568-15.872h20.992c24.256 0.32 42.496 7.52 54.784 21.504 12.288 14.336 20.672 39.072 25.088 74.24l10.752 84.48a228.48 228.48 0 0 1 2.048 31.232c0 22.528-4.608 38.72-13.824 48.64-9.216 10.24-24.224 15.52-45.056 15.872h-20.992c-16.384-0.32-29.856-3.584-40.448-9.728-10.56-5.792-19.104-15.68-25.6-29.696-6.144-13.664-10.752-32.416-13.824-56.32l-10.752-84.48z"  horiz-adv-x="1024" />
      
      <glyph glyph-name="wzcs" unicode="&#59127;" d="M909.681778 548.721778A395.377778 395.377778 0 0 0 938.666667 398.279111c0.170667-226.104889-188.046222-410.112-421.859556-412.472889l174.734222 292.181334c60.672 84.48 49.379556 198.912-26.709333 270.791111h244.849778z m-769.137778 50.176l174.023111-290.702222c36.124444-73.955556 112.924444-121.258667 197.518222-121.685334a261.575111 261.575111 0 0 1 58.794667 7.395556l-0.056889-0.056889-122.112-205.141333C240.014222 19.342222 85.674667 192.625778 85.333333 396.686222a396.544 396.544 0 0 0 55.239111 202.211556z m400.952889 210.801778c139.946667-9.272889 266.211556-84.508444 337.664-201.216H531.143111a165.461333 165.461333 0 0 1-19.057778 0.739555c-99.470222-0.654222-186.112-65.649778-211.427555-158.634667L178.545778 654.961778c87.296 106.154667 223.004444 164.010667 362.922666 154.737778zM398.222222 383.886222a113.777778 113.777778 0 1 0 227.555556 0.227556 113.777778 113.777778 0 0 0-227.555556-0.227556z"  horiz-adv-x="1024" />
      
      <glyph glyph-name="mtjz" unicode="&#59128;" d="M483.441778 793.6c229.319111 0 415.203556-186.026667 415.203555-415.573333 0-14.848-0.796444-29.496889-2.304-43.918223-1.649778-15.644444-16.526222-26.026667-32.028444-23.267555l-117.219556 20.764444c-15.473778 2.759111-25.6 17.521778-24.746666 33.194667A239.274667 239.274667 0 1 1 278.186667 255.146667a239.331556 239.331556 0 0 1 313.315555-90.737778c13.937778 7.054222 31.431111 3.754667 40.163556-9.187556l66.787555-98.986666c8.817778-13.027556 5.376-30.833778-8.248889-38.684445a413.013333 413.013333 0 0 0-206.734222-55.096889C254.179556-37.546667 68.266667 148.48 68.266667 378.026667 68.266667 607.573333 254.179556 793.6 483.470222 793.6h-0.028444z m0-269.710222a145.777778 145.777778 0 0 0 145.720889-142.648889c0.341333-15.729778-14.734222-26.168889-30.208-23.409778l-52.081778 9.244445c-24.746667 4.380444-42.581333-23.096889-28.558222-43.918223l29.098666-43.150222c8.874667-13.141333 5.319111-31.288889-9.386666-37.205333a145.777778 145.777778 0 0 0-110.364445 269.937778 145.777778 145.777778 0 0 0 55.808 11.150222h-0.028444zM945.607111 217.6l-225.080889 40.675556c-24.746667 4.437333-42.695111-23.04-28.643555-43.918223l128.284444-190.179555c14.990222-22.272 49.607111-13.255111 51.911111 13.482666l5.973334 70.314667a28.444444 28.444444 0 0 0 14.535111 22.442667l61.809777 34.360889c23.324444 12.970667 17.521778 48.071111-8.789333 52.849777z"  horiz-adv-x="1024" />
      
      <glyph glyph-name="seoyh" unicode="&#59129;" d="M693.560889 460.8c-17.92 0-29.184-9.728-29.184-35.328v-193.536c0-25.6 11.264-35.328 29.184-35.328s29.184 9.728 29.184 35.328v193.536c0 25.6-11.264 35.328-29.184 35.328zM192 576a128 128 0 0 1-128-128v-224a128 128 0 0 1 128-128h640a128 128 0 0 1 128 128V448a128 128 0 0 1-128 128H192z m33.536-154.112c0 57.344 28.16 90.112 82.944 90.112s82.944-32.768 82.944-90.112v-11.264h-53.248v14.848c0 25.6-10.24 35.328-28.16 35.328s-28.16-9.728-28.16-35.328c0-33.848889 23.210667-55.04 48.327111-78.023111 29.525333-27.050667 61.752889-56.547556 61.752889-111.928889 0-57.344-28.672-90.112-83.968-90.112s-83.968 32.768-83.968 90.112v22.016h53.248v-25.6c0-25.6 11.264-34.816 29.184-34.816s29.184 9.216 29.184 34.816c0 33.848889-23.210667 55.04-48.327111 78.023111-29.525333 27.079111-61.752889 56.547556-61.752889 111.928889z m254.976 34.816v-99.84h77.312v-51.2h-77.312v-104.96h97.28v-51.2h-153.6v358.4h153.6v-51.2h-97.28z m213.077333-311.296c-55.296 0-85.504 32.768-85.504 90.112v186.368c0 57.344 30.208 90.112 85.504 90.112 55.296 0 85.504-32.768 85.504-90.112v-186.368c0-57.344-30.208-90.112-85.504-90.112zM270.392889 64h483.214222A350.776889 350.776889 0 0 0 512-32a350.776889 350.776889 0 0 0-241.607111 96zM240.440889 608A351.317333 351.317333 0 0 0 512 736a351.288889 351.288889 0 0 0 271.559111-128H240.440889z"  horiz-adv-x="1024" />
      
      <glyph glyph-name="ggyz" unicode="&#59130;" d="M512 284.444444a42.666667 42.666667 0 0 1-31.886222-14.307555l-227.555556-256a42.666667 42.666667 0 1 1 63.772445-56.689778L512 177.550222l195.669333-220.103111a42.666667 42.666667 0 1 1 63.772445 56.689778l-227.555556 256A42.666667 42.666667 0 0 1 512 284.444444zM83.057778 696.888889a113.777778 113.777778 0 0 0 113.777778 113.777778h630.328888a113.777778 113.777778 0 0 0 113.777778-113.777778v-465.351111a113.777778 113.777778 0 0 0-113.777778-113.777778H196.835556a113.777778 113.777778 0 0 0-113.777778 113.777778V696.888889z m554.837333-103.082667h-83.285333V355.555556h83.285333c25.031111 0 46.990222 4.892444 65.877333 14.677333a104.476444 104.476444 0 0 1 44.032 41.301333c10.467556 17.976889 15.701333 38.912 15.701334 62.805334 0 23.893333-5.233778 44.828444-15.701334 62.805333a103.253333 103.253333 0 0 1-44.032 41.984c-18.887111 9.784889-40.846222 14.677333-65.877333 14.677333z m-1.706667-197.632c25.031111 0 44.373333 6.826667 58.026667 20.48s20.48 32.881778 20.48 57.685334c0 24.803556-6.826667 44.145778-20.48 58.026666-13.653333 14.108444-32.995556 21.162667-58.026667 21.162667h-33.792v-157.354667h33.792zM315.050667 355.555556l15.701333 45.397333h94.890667L441.344 355.555556h50.517333l-85.674666 238.592h-55.637334L264.874667 355.555556h50.176z m63.146666 183.296l-34.474666-99.669334h68.949333l-34.474667 99.669334z"  horiz-adv-x="1024" />
      
      <glyph glyph-name="scdy" unicode="&#59131;" d="M599.381333 144.696889L796.444444 470.812444V716.231111C796.444444 768.398222 750.990222 810.666667 694.954667 810.666667H187.904C131.214222 810.666667 85.333333 768.284444 85.333333 715.804444v-663.608888C85.333333-0.199111 131.328-42.666667 187.904-42.666667h401.351111l-5.688889 30.264889c-3.271111 13.937778-14.592 52.337778-10.894222 88.234667 3.043556 30.037333 20.366222 58.055111 26.709333 68.835555zM262.030222 597.447111h364.8c12.657778 0 22.784-10.609778 22.784-23.751111 0-13.141333-10.24-23.751111-22.755555-23.751111H262.001778c-12.657778 0-22.784 10.609778-22.784 23.751111a23.153778 23.153778 0 0 0 22.755555 23.751111z m262.257778-426.581333h-262.257778c-12.657778 0-22.784 10.609778-22.784 23.751111 0 13.141333 10.24 23.722667 22.755556 23.722667h262.257778c12.657778 0 22.784-10.581333 22.784-23.722667 0-13.141333-10.24-23.751111-22.755556-23.751111z m-262.257778 189.610666c-12.657778 0-22.784 10.581333-22.784 23.722667 0 13.141333 10.24 23.751111 22.755556 23.751111h364.828444c12.657778 0 22.784-10.609778 22.784-23.751111 0-13.141333-10.24-23.722667-22.755555-23.722667H262.001778zM916.679111 345.315556l-54.272 32.540444a39.168 39.168 0 0 1-34.076444 3.925333c-11.349333-2.616889-21.447111-10.439111-26.538667-20.821333L665.6 118.670222c-8.874667-16.896-13.880889-42.979556-10.126222-61.212444l6.257778-37.745778c2.531556-12.999111 8.874667-23.466667 18.972444-28.700444 6.343111-3.925333 12.600889-5.233778 20.195556-5.233778 5.12 0 10.126222 1.308444 13.880888 2.616889l35.299556 12.999111c17.720889 6.542222 36.693333 23.466667 46.705778 40.391111l136.248889 243.569778c11.463111 19.512889 5.12 48.213333-16.355556 59.989333z"  horiz-adv-x="1024" />
      
      <glyph glyph-name="huodong" unicode="&#59132;" d="M319.445333 360.917333h428.032c23.552 0 43.008-18.944 43.008-43.008v-214.058666c0-23.552-18.986667-43.008-43.050666-43.008H319.445333a42.922667 42.922667 0 0 0-43.008 43.050666V317.866667c0 23.509333 19.456 43.008 43.008 43.008zM882.602667 671.658667h-31.232a124.8 124.8 0 0 1 20.48 75.776 94.122667 94.122667 0 0 1-45.568 70.656 131.541333 131.541333 0 0 1-105.472 13.312 389.205333 389.205333 0 0 1-194.56-141.824 389.205333 389.205333 0 0 1-194.56 141.824 129.536 129.536 0 0 1-105.472-13.312c-25.6-14.848-42.496-40.96-45.568-70.656a124.8 124.8 0 0 1 20.48-75.776h-31.232c-47.104 0-84.992-38.4-84.992-84.992v-109.568c0-37.376 24.576-70.144 59.904-80.896-3.584-9.216-5.12-18.944-5.12-28.672v-329.216c0-47.104 38.4-84.992 84.992-84.992h603.136c47.104 0 84.992 38.4 84.992 84.992v329.216c0 9.728-1.536 19.456-5.12 28.672a85.589333 85.589333 0 0 1 59.904 80.896V586.666667c0 46.592-37.888 84.48-84.992 84.992z m-54.784-658.944h-270.848v378.368h271.36c13.312 0 24.576-11.264 24.576-24.576v-329.216a25.002667 25.002667 0 0 0-25.088-24.576zM590.250667 671.146667a318.208 318.208 0 0 0 145.92 100.352 70.229333 70.229333 0 0 0 57.344-5.12 33.450667 33.450667 0 0 0 18.432-25.088 117.034667 117.034667 0 0 0-36.352-70.144h-185.344z m316.928-84.992V476.586667a24.576 24.576 0 0 0-24.576-24.576h-326.144V611.242667h326.144a25.002667 25.002667 0 0 0 24.576-25.088z m-411.136-194.56v-378.368h-271.36a24.576 24.576 0 0 0-24.576 24.576v329.216c0 13.312 10.752 24.576 24.576 24.576h271.36zM241.066667 741.802667a32.341333 32.341333 0 0 0 18.432 25.088c17.408 9.728 38.4 11.776 57.344 5.12a316.714667 316.714667 0 0 0 145.408-100.352H276.906667a113.706667 113.706667 0 0 0-35.84 70.144zM145.322667 586.666667c0 13.312 10.752 24.576 24.576 24.576h326.144v-158.72H169.898667a24.576 24.576 0 0 0-24.576 24.576V586.666667z"  horiz-adv-x="1024" />
      
      <glyph glyph-name="jgjk" unicode="&#59124;" d="M949.816889-53.816889c-25.912889-25.884444-70.200889-22.243556-95.544889 7.907556l-98.616889 117.276444c-20.394667 20.394667-21.560889 52.622222-2.588444 71.566222 18.972444 18.972444 51.171556 17.806222 71.566222-2.588444l117.276444-98.616889c30.151111-25.344 33.820444-69.632 7.907556-95.544889zM86.954667 298.154667a394.951111 394.951111 0 1 0 729.742222 302.279111A394.951111 394.951111 0 0 0 86.954667 298.154667z m390.4 266.069333c23.352889-3.185778 43.975111-12.600889 55.466666-25.770667a26.453333 26.453333 0 0 1 35.84-3.214222 23.267556 23.267556 0 0 1 3.384889 33.962667c-20.906667 23.978667-55.836444 39.936-94.72 43.605333V638.008889a23.608889 23.608889 0 0 1-7.850666 16.327111 26.254222 26.254222 0 0 1-17.578667 6.656 26.254222 26.254222 0 0 1-17.607111-6.656 23.608889 23.608889 0 0 1-7.850667-16.327111v-27.392a155.676444 155.676444 0 0 1-51.057778-18.716445c-28.416-16.924444-45.454222-41.073778-47.957333-68.124444-1.991111-21.532444 5.831111-43.121778 22.158222-60.757333 18.318222-19.882667 45.511111-33.649778 76.856889-39.424v-97.792c-22.414222 3.470222-42.069333 12.771556-53.162667 25.514666a26.453333 26.453333 0 0 1-35.271111 2.56 23.239111 23.239111 0 0 1-4.039111-33.28c20.536889-23.552 54.471111-39.395556 92.444445-43.52v-24.974222a23.608889 23.608889 0 0 1 7.879111-16.327111c4.750222-4.266667 11.036444-6.656 17.607111-6.656 6.542222 0 12.828444 2.389333 17.578667 6.656a23.608889 23.608889 0 0 1 7.879111 16.327111v26.538667a156.615111 156.615111 0 0 1 53.390222 19.171555c28.416 16.896 45.482667 41.073778 47.985778 68.067556 1.991111 21.560889-5.859556 43.150222-22.158223 60.814222-18.773333 20.366222-46.904889 34.304-79.217777 39.822222v97.706667z m-99.185778-44.686222c-0.853333-8.533333 2.446222-16.924444 9.728-24.803556 8.96-9.671111 22.528-17.152 38.542222-21.560889v87.779556a97.934222 97.934222 0 0 1-23.978667-9.955556c-14.592-8.675556-23.239111-19.854222-24.291555-31.459555z m125.496889-180.849778c14.592 8.675556 23.267556 19.854222 24.32 31.459556 0.853333 8.533333-2.474667 16.896-9.756445 24.775111-9.386667 10.211556-23.893333 17.92-40.874666 22.186666v-89.031111c9.642667 2.446222 18.631111 6.001778 26.311111 10.609778z"  horiz-adv-x="1024" />
      
      <glyph glyph-name="sjzq" unicode="&#59125;" d="M965.286763 753.770185A41.528531 41.528531 0 0 0 1006.929071 712.412319v-590.444694a41.528531 41.528531 0 0 0-41.642308-41.38631h-425.525224v-82.744176h222.149198c19.17139 0 34.701923-15.416756 34.701923-34.47437 0-19.057614-15.530533-34.47437-34.701923-34.47437H262.060819a34.616591 34.616591 0 0 0-34.701923 34.47437c0 19.057614 15.530533 34.47437 34.701923 34.47437h208.296873v82.744176H115.601636A41.528531 41.528531 0 0 0 73.959328 121.967625V712.35543C73.959328 735.281455 92.590278 753.770185 115.601636 753.770185h849.685127zM974.189798 785.286358l-133.687738 109.055061a7.310159 7.310159 0 0 1-11.946564-5.603508v-40.646761a7.395492 7.395492 0 0 0-6.684387-7.224826c-173.082954-17.06652-195.041876-159.287517-196.094311-226.586494a7.310159 7.310159 0 0 1 13.909214-3.242638c32.483276 66.957646 101.26135 102.399118 181.217995 105.641757a7.395492 7.395492 0 0 0 7.651489-7.395492V670.144238a7.310159 7.310159 0 0 1 11.946564-5.68884l133.687738 109.709278a7.423936 7.423936 0 0 1 0 11.150126zM256.002204 298.662993a28.4442 28.4442 0 1 0 56.888399 0v-113.776798a28.4442 28.4442 0 1 0-56.888399 0v113.776798zM824.886195 298.662993a28.4442 28.4442 0 1 0 56.888399 0v-113.776798a28.4442 28.4442 0 1 0-56.888399 0v113.776798zM398.223202 497.772389a28.4442 28.4442 0 1 0 56.888399 0v-312.886194a28.4442 28.4442 0 1 0-56.888399 0V497.772389zM540.4442 412.439791a28.4442 28.4442 0 1 0 56.888399 0v-227.553596a28.4442 28.4442 0 1 0-56.888399 0v227.553596zM682.665197 469.32819a28.4442 28.4442 0 1 0 56.888399 0v-284.441995a28.4442 28.4442 0 1 0-56.888399 0V469.32819z"  horiz-adv-x="1024" />
      
      <glyph glyph-name="jrsj" unicode="&#59126;" d="M320 38.4c0 21.191111 19.114667 38.4 42.666667 38.4h298.666666c23.552 0 42.666667-17.180444 42.666667-38.4 0-21.219556-19.114667-38.4-42.666667-38.4h-298.666666c-23.552 0-42.666667 17.180444-42.666667 38.4zM128 649.187556v-395.975112c0-65.621333 57.315556-118.812444 128-118.812444h512c70.684444 0 128 53.191111 128 118.812444V649.187556C896 714.808889 838.684444 768 768 768H256c-70.684444 0-128-53.191111-128-118.812444zM458.325333 639.288889c14.250667-0.483556 26.453333-9.699556 29.866667-22.584889l57.856-217.514667 32.056889 38.485334c6.058667 7.281778 15.416889 11.548444 25.315555 11.548444H768c17.664 0 32-13.312 32-29.696 0-16.412444-14.336-29.696-32-29.696h-148.849778l-62.976-75.605333c-7.509333-9.016889-19.911111-13.255111-31.914666-10.894222-12.003556 2.360889-21.532444 10.894222-24.462223 21.959111l-46.933333 176.384-31.715556-90.282667c-4.266667-12.231111-16.554667-20.48-30.435555-20.48H256c-17.664 0-32 13.283556-32 29.696 0 16.384 14.336 29.696 32 29.696h111.502222l59.221334 168.504889c4.408889 12.600889 17.322667 20.963556 31.573333 20.48z"  horiz-adv-x="1024" />
      
      <glyph glyph-name="wx" unicode="&#59121;" d="M235.989333 575.530667c0-23.893333 19.242667-43.136 43.093334-43.136 23.893333 0 43.136 19.242667 43.136 43.093333 0 23.893333-19.2 43.136-43.093334 43.136s-43.093333-19.242667-43.093333-43.093333zM571.818667 352.64a33.92 33.92 0 0 1 67.754666 0 33.92 33.92 0 0 1-67.754666 0zM456.021333 575.530667c0-23.893333 19.2-43.136 43.093334-43.136s43.093333 19.242667 43.093333 43.093333c0 23.893333-19.2 43.136-43.093333 43.136s-43.093333-19.242667-43.093334-43.093333zM1020.928 746.24c0 83.754667-68.906667 149.76-149.76 149.76H149.76C65.834667 896 0 827.093333 0 746.24v-724.48C0-62.037333 68.906667-128 149.76-128h724.48c83.754667 0 149.76 68.906667 149.76 149.76l-3.072 724.48zM383.744 213.248c-38.698667 0-69.845333 7.893333-108.757333 15.573333l-108.330667-54.442666 30.976 93.312c-77.738667 54.272-124.117333 124.330667-124.117333 209.578666 0 147.626667 139.733333 264.064 310.4 264.064 152.618667 0 286.378667-92.970667 313.301333-218.026666a306.432 306.432 0 0 1-29.824 1.706666c-147.413333 0-263.850667-109.909333-263.850667-245.546666 0-22.528 3.498667-44.288 9.642667-65.066667a378.88 378.88 0 0 0-29.44-1.152z m457.813333-108.714667l23.296-77.568-85.077333 46.549334c-30.976-7.68-62.165333-15.573333-93.141333-15.573334-147.626667 0-264.021333 100.864-264.021334 225.152 0 124.16 116.224 225.152 264.021334 225.152 139.52 0 263.68-101.205333 263.68-225.152 0-69.845333-46.378667-131.84-108.757334-178.56zM740.821333 352.64a33.92 33.92 0 0 1 67.754667 0 33.92 33.92 0 0 1-33.877333 33.877333 34.048 34.048 0 0 1-33.877334-33.877333z"  horiz-adv-x="1024" />
      
      <glyph glyph-name="zfb" unicode="&#59122;" d="M1023.999573 199.125624l-329.386529 110.76262s25.301323 37.887984 52.351978 112.17062c27.007989 74.282636 30.890654 115.071952 30.890654 115.071952l-213.247911 1.791999V611.712118l258.218559 1.834666V665.04543h-258.261226V782.208047h-126.463947v-117.162617H197.162585V613.546784l240.938566 1.706666v-78.079967h-193.27992v-40.831983h397.781168s-4.351998-33.10932-19.626659-74.282636c-15.231994-41.173316-30.93332-77.226634-30.93332-77.226634s-186.751922 65.322639-285.183881 65.322639c-98.431959 0-218.111909-39.509317-229.717238-154.282602-11.519995-114.687952 55.76531-176.810593 150.613271-199.679917 94.805294-22.954657 182.357257 0.256 258.559892 37.546651 76.245302 37.290651 151.039937 121.983949 151.039937 121.983949l383.914507-186.453256A189.439921 189.439921 0 0 0 834.388986-127.999573H189.610588A189.439921 189.439921 0 0 0 0 61.269681V706.389412A189.439921 189.439921 0 0 0 189.269254 896h645.119732A189.439921 189.439921 0 0 0 1023.999573 706.730746v-507.605122zM543.957107 263.253597S424.10649 112.000327 282.879882 112.000327c-141.226608 0-170.922595 71.893303-170.922595 123.562615 0 51.626645 29.354654 107.818622 149.546604 115.967952 120.106617 8.106663 282.453216-88.23463 282.453216-88.23463h-0.042667z"  horiz-adv-x="1024" />
      
      <glyph glyph-name="apitq" unicode="&#59123;" d="M490.666667 708.266667a345.6 345.6 0 1 1 345.6-345.6 38.4 38.4 0 0 0 76.8 0c0-233.301333-189.141333-422.4-422.4-422.4-233.301333 0-422.4 189.098667-422.4 422.4s189.098667 422.4 422.4 422.4a38.4 38.4 0 1 0 0-76.8zM684.885333 520.96a38.4 38.4 0 0 0 6.741334-53.888c-75.818667-97.493333-136.576-154.24-205.397334-184.832-68.394667-30.421333-140.288-32.64-230.229333-32.64a38.4 38.4 0 0 0 0 76.8c91.306667 0 147.498667 3.114667 199.04 26.026667 51.2 22.741333 102.442667 67.328 175.957333 161.834666a38.4 38.4 0 0 0 53.888 6.698667zM452.266667 490.666667a38.4 38.4 0 0 0 38.4 38.4h170.666666a38.4 38.4 0 0 0 38.4-38.4v-170.666667a38.4 38.4 0 0 0-76.8 0v132.266667h-132.266666a38.4 38.4 0 0 0-38.4 38.4zM661.333333 827.733333a38.4 38.4 0 0 0 38.4-38.4v-96a38.4 38.4 0 1 0-76.8 0V789.333333a38.4 38.4 0 0 0 38.4 38.4zM793.6 533.333333a38.4 38.4 0 0 1 38.4-38.4h96a38.4 38.4 0 1 1 0 76.8H832a38.4 38.4 0 0 1-38.4-38.4zM899.413333 773.802667a38.4 38.4 0 0 0 0-54.272l-82.944-82.986667a38.4 38.4 0 0 0-54.314666 54.314667l82.986666 82.944a38.4 38.4 0 0 0 54.314667 0z"  horiz-adv-x="1024" />
      
      <glyph glyph-name="xsxd-Hover" unicode="&#59117;" d="M809.792 610.592c0 15.68 10.88 26.112 27.072 26.112s27.04-15.648 27.136-26.144v-479.264C864 79.072 815.2 32 755.68 32h-492.8C214.08 37.28 165.44 73.792 160 120.864V641.92C160 704.64 219.52 736 279.104 736h368.16c64.96 0 108.32-36.512 108.32-94.08v-374.656c0-15.68-10.784-26.144-27.072-26.144H273.664c-32.48 0-64.96-15.68-64.96-41.792v-57.504c0-26.144 37.888-52.224 70.4-52.224h476.576c27.04 0 54.112 26.08 54.112 52.224V610.624zM709.344 192H314.656C298.624 192 288 179.2 288 160s10.72-32 26.656-32h394.688c16.032 0 26.656 12.8 26.656 32 0 19.104-10.72 32-26.656 32z"  horiz-adv-x="1024" />
      
      <glyph glyph-name="xsxd" unicode="&#59118;" d="M809.792 610.592c0 15.68 10.88 26.112 27.072 26.112s27.04-15.648 27.136-26.144v-479.264C864 79.072 815.2 32 755.68 32h-492.8C214.08 37.28 165.44 73.792 160 120.864V641.92C160 704.64 219.52 736 279.104 736h368.16c64.96 0 108.32-36.512 108.32-94.08v-374.656c0-15.68-10.784-26.144-27.072-26.144H273.664c-32.48 0-64.96-15.68-64.96-41.792v-57.504c0-26.144 37.888-52.224 70.4-52.224h476.576c27.04 0 54.112 26.08 54.112 52.224V610.624zM709.344 192H314.656C298.624 192 288 179.2 288 160s10.72-32 26.656-32h394.688c16.032 0 26.656 12.8 26.656 32 0 19.104-10.72 32-26.656 32z"  horiz-adv-x="1024" />
      
      <glyph glyph-name="zd-Hover" unicode="&#59119;" d="M420.704 478.88L230.176 194.88a102.144 102.144 0 0 1 85.056-158.88h380.288a102.144 102.144 0 0 1 85.056 158.88l-190.016 284a102.144 102.144 0 0 1-169.856 0zM255.968 732h512.32c34.048 0 51.072-17.024 51.072-51.104v-0.256c0-34.048-17.024-51.072-51.072-51.072H256c-34.08 0-51.104 17.024-51.104 51.072v0.256c0 34.08 17.024 51.104 51.104 51.104z"  horiz-adv-x="1024" />
      
      <glyph glyph-name="xiazai" unicode="&#59120;" d="M512 705.472c19.712 0 35.712-16 35.712-35.712v-452.48a35.712 35.712 0 0 0-71.488 0v452.48c0 19.712 16 35.712 35.776 35.712zM304.512 369.344a35.712 35.712 0 0 1 7.68-49.92l178.624-130.944a35.712 35.712 0 0 1 42.24 0L711.68 319.36a35.712 35.712 0 1 1-42.24 57.6L512 261.568 354.432 377.024a35.712 35.712 0 0 1-49.92-7.68zM119.04 467.328c19.84 0 35.776-16 35.776-35.712v-328.96c0-15.552 12.672-28.224 28.288-28.224H840.96a28.288 28.288 0 0 1 28.288 28.288v328.96a35.712 35.712 0 0 0 71.424 0v-328.96c0-55.104-44.608-99.776-99.712-99.776H183.04c-55.04 0-99.648 44.672-99.648 99.776v328.96c0 19.648 16 35.648 35.712 35.648z"  horiz-adv-x="1024" />
      
      <glyph glyph-name="zd" unicode="&#59113;" d="M420.704 478.88L230.176 194.88a102.144 102.144 0 0 1 85.056-158.88h380.288a102.144 102.144 0 0 1 85.056 158.88l-190.016 284a102.144 102.144 0 0 1-169.856 0zM255.968 732h512.32c34.048 0 51.072-17.024 51.072-51.104v-0.256c0-34.048-17.024-51.072-51.072-51.072H256c-34.08 0-51.104 17.024-51.104 51.072v0.256c0 34.08 17.024 51.104 51.104 51.104z"  horiz-adv-x="1024" />
      
      <glyph glyph-name="zxzx" unicode="&#59114;" d="M409.536 246.848h177.44c9.216-0.032 18.016-3.936 24.544-10.848a38.24 38.24 0 0 0-3.68-55.552l-177.472-145.696a33.024 33.024 0 0 0-36.32-3.392 35.584 35.584 0 0 0-13.984 13.536 38.592 38.592 0 0 0-5.184 19.36V209.92c0.032 9.76 3.712 19.104 10.208 26.016a33.92 33.92 0 0 0 24.448 10.88zM205.312 630.848h503.68c20.48-0.032 40.096-8.064 54.592-22.272 14.496-14.208 22.656-33.472 22.72-53.568v-342.016a75.36 75.36 0 0 0-22.72-53.568 78.272 78.272 0 0 0-54.592-22.272H205.312a78.272 78.272 0 0 0-54.592 22.272A75.36 75.36 0 0 0 128 212.992V554.688c0 20.16 8.128 39.456 22.624 53.76a78.368 78.368 0 0 0 54.688 22.4z m77.696-304.224c11.52 0.032 22.72 3.392 32.256 9.696 9.568 6.272 16.96 15.2 21.344 25.632a56 56 0 0 1 3.2 32.96 56.672 56.672 0 0 1-16 29.12 59.072 59.072 0 0 1-63.36 12.128 57.824 57.824 0 0 1-25.984-21.12 56.224 56.224 0 0 1-9.6-31.68 55.168 55.168 0 0 1 16.864-40.384 57.248 57.248 0 0 1 41.28-16.256v-0.096z m174.208 0c11.52 0.032 22.72 3.392 32.256 9.696 9.536 6.272 16.96 15.2 21.344 25.632a56 56 0 0 1 3.2 32.96 56.672 56.672 0 0 1-16 29.12 59.072 59.072 0 0 1-63.36 12.128 57.792 57.792 0 0 1-25.984-21.12 56.192 56.192 0 0 1-9.632-31.68 55.168 55.168 0 0 1 16.864-40.352 57.312 57.312 0 0 1 41.248-16.32l0.064-0.064z m174.528 0c11.52 0.032 22.72 3.392 32.256 9.696 9.536 6.272 16.96 15.2 21.344 25.632a56 56 0 0 1 3.2 32.96 56.64 56.64 0 0 1-16 29.12 59.072 59.072 0 0 1-63.36 12.128 57.824 57.824 0 0 1-25.984-21.12 56.224 56.224 0 0 1-9.632-31.68 55.168 55.168 0 0 1 16.896-40.384 57.216 57.216 0 0 1 41.248-16.256l0.032-0.096zM819.008 246.88V588.896a75.328 75.328 0 0 1-22.72 53.568 78.272 78.272 0 0 1-54.592 22.272H237.696c0.032 20.096 8.224 39.36 22.72 53.568a78.272 78.272 0 0 0 54.592 22.272h503.68c20.48-0.064 40.096-8.064 54.592-22.272 14.464-14.208 22.624-33.472 22.72-53.568v-342.144c0-9.92-1.952-19.776-5.792-28.96-3.84-9.184-9.536-17.536-16.672-24.576-7.168-7.04-15.68-12.64-25.024-16.448-9.344-3.808-19.392-5.76-29.504-5.76z"  horiz-adv-x="1024" />
      
      <glyph glyph-name="zhankai" unicode="&#59115;" d="M256 629.333333a32 32 0 0 1 0-64h512a32 32 0 0 1 0 64H256z m0-213.333333a32 32 0 0 1 0-64h256a32 32 0 0 1 0 64H256zM224 170.666667a32 32 0 0 0 32 32h512a32 32 0 0 0 0-64H256a32 32 0 0 0-32 32z m423.466667 208.170666a4.992 4.992 0 0 0 0 8.618667l134.4 77.568a4.992 4.992 0 0 0 7.466666-4.266667v-155.221333c0-3.84-4.138667-6.229333-7.424-4.309333l-134.4 77.610666z"  horiz-adv-x="1024" />
      
      <glyph glyph-name="zxzx-Hover" unicode="&#59116;" d="M409.536 246.848h177.44c9.216-0.032 18.016-3.936 24.544-10.848a38.24 38.24 0 0 0-3.68-55.552l-177.472-145.696a33.024 33.024 0 0 0-36.32-3.392 35.584 35.584 0 0 0-13.984 13.536 38.592 38.592 0 0 0-5.184 19.36V209.92c0.032 9.76 3.712 19.104 10.208 26.016a33.92 33.92 0 0 0 24.448 10.88zM205.312 630.848h503.68c20.48-0.032 40.096-8.064 54.592-22.272 14.496-14.208 22.656-33.472 22.72-53.568v-342.016a75.36 75.36 0 0 0-22.72-53.568 78.272 78.272 0 0 0-54.592-22.272H205.312a78.272 78.272 0 0 0-54.592 22.272A75.36 75.36 0 0 0 128 212.992V554.688c0 20.16 8.128 39.456 22.624 53.76a78.368 78.368 0 0 0 54.688 22.4z m77.696-304.224c11.52 0.032 22.72 3.392 32.256 9.696 9.568 6.272 16.96 15.2 21.344 25.632a56 56 0 0 1 3.2 32.96 56.672 56.672 0 0 1-16 29.12 59.072 59.072 0 0 1-63.36 12.128 57.824 57.824 0 0 1-25.984-21.12 56.224 56.224 0 0 1-9.6-31.68 55.168 55.168 0 0 1 16.864-40.384 57.248 57.248 0 0 1 41.28-16.256v-0.096z m174.208 0c11.52 0.032 22.72 3.392 32.256 9.696 9.536 6.272 16.96 15.2 21.344 25.632a56 56 0 0 1 3.2 32.96 56.672 56.672 0 0 1-16 29.12 59.072 59.072 0 0 1-63.36 12.128 57.792 57.792 0 0 1-25.984-21.12 56.192 56.192 0 0 1-9.632-31.68 55.168 55.168 0 0 1 16.864-40.352 57.312 57.312 0 0 1 41.248-16.32l0.064-0.064z m174.528 0c11.52 0.032 22.72 3.392 32.256 9.696 9.536 6.272 16.96 15.2 21.344 25.632a56 56 0 0 1 3.2 32.96 56.64 56.64 0 0 1-16 29.12 59.072 59.072 0 0 1-63.36 12.128 57.824 57.824 0 0 1-25.984-21.12 56.224 56.224 0 0 1-9.632-31.68 55.168 55.168 0 0 1 16.896-40.384 57.216 57.216 0 0 1 41.248-16.256l0.032-0.096zM819.008 246.88V588.896a75.328 75.328 0 0 1-22.72 53.568 78.272 78.272 0 0 1-54.592 22.272H237.696c0.032 20.096 8.224 39.36 22.72 53.568a78.272 78.272 0 0 0 54.592 22.272h503.68c20.48-0.064 40.096-8.064 54.592-22.272 14.464-14.208 22.624-33.472 22.72-53.568v-342.144c0-9.92-1.952-19.776-5.792-28.96-3.84-9.184-9.536-17.536-16.672-24.576-7.168-7.04-15.68-12.64-25.024-16.448-9.344-3.808-19.392-5.76-29.504-5.76z"  horiz-adv-x="1024" />
      
      <glyph glyph-name="wxgzh-Hover" unicode="&#59105;" d="M896 286.816c0 107.168-105.312 194.464-223.872 194.464-125.6 0-224.128-87.296-224.128-194.464 0-107.488 98.624-194.432 224.128-194.432 26.304 0 52.8 6.816 79.04 13.28l72.32-40.384-19.744 67.04C856.544 172.864 896 226.56 896 286.816zM645.888 510.112c8.704 0 17.408-0.608 26.112-1.6-23.36 113.056-140 196.768-273.184 196.768C250.08 705.28 128 600.384 128 466.944c0-76.992 40.512-140.32 108.256-189.344l-26.944-84.32 94.72 49.28c33.856-6.816 61.152-13.952 94.784-13.952 8.352 0 16.8 0.32 25.248 1.248a212.32 212.32 0 0 0-8.352 58.624c-0.096 122.304 101.6 221.632 230.176 221.632zM304 561.28m-48 0a48 48 0 1 1 96 0 48 48 0 1 1-96 0ZM496 561.28m-48 0a48 48 0 1 1 96 0 48 48 0 1 1-96 0ZM608 353.28m-32 0a32 32 0 1 1 64 0 32 32 0 1 1-64 0ZM736 353.28m-32 0a32 32 0 1 1 64 0 32 32 0 1 1-64 0Z"  horiz-adv-x="1024" />
      
      <glyph glyph-name="wxgzh" unicode="&#59106;" d="M896 286.816c0 107.168-105.312 194.464-223.872 194.464-125.6 0-224.128-87.296-224.128-194.464 0-107.488 98.624-194.432 224.128-194.432 26.304 0 52.8 6.816 79.04 13.28l72.32-40.384-19.744 67.04C856.544 172.864 896 226.56 896 286.816zM645.888 510.112c8.704 0 17.408-0.608 26.112-1.6-23.36 113.056-140 196.768-273.184 196.768C250.08 705.28 128 600.384 128 466.944c0-76.992 40.512-140.32 108.256-189.344l-26.944-84.32 94.72 49.28c33.856-6.816 61.152-13.952 94.784-13.952 8.352 0 16.8 0.32 25.248 1.248a212.32 212.32 0 0 0-8.352 58.624c-0.096 122.304 101.6 221.632 230.176 221.632zM304 561.28m-48 0a48 48 0 1 1 96 0 48 48 0 1 1-96 0ZM496 561.28m-48 0a48 48 0 1 1 96 0 48 48 0 1 1-96 0ZM608 353.28m-32 0a32 32 0 1 1 64 0 32 32 0 1 1-64 0ZM736 353.28m-32 0a32 32 0 1 1 64 0 32 32 0 1 1-64 0Z"  horiz-adv-x="1024" />
      
      <glyph glyph-name="up2" unicode="&#59107;" d="M1024 384c0 282.752-229.248 512-512 512S0 666.752 0 384s229.248-512 512-512 512 229.248 512 512zM512 506.325333c-8.533333 0-15.658667-3.328-21.333333-9.984l-183.466667-183.466666a28.117333 28.117333 0 0 1-8.533333-20.608c0-8.064 2.858667-15.146667 8.533333-21.333334 5.674667-6.144 12.8-9.258667 21.333333-9.258666s15.658667 3.328 21.333334 9.984l162.133333 162.133333 162.133333-162.133333c5.674667-5.717333 12.8-8.533333 21.333334-8.533334s15.658667 2.816 21.333333 8.533334a28.074667 28.074667 0 0 1 8.533333 20.608 28.117333 28.117333 0 0 1-8.533333 20.608l-183.466667 183.466666a26.965333 26.965333 0 0 1-21.333333 9.984z"  horiz-adv-x="1024" />
      
      <glyph glyph-name="up" unicode="&#59108;" d="M504.900608 691.2a53.5552 53.5552 0 0 1-36.9664-16.5888L16.862208 186.4704a70.656 70.656 0 0 1 0-91.136 53.76 53.76 0 0 1 81.408 0L512.273408 542.3104l414.0032-446.7712a53.76 53.76 0 0 1 81.408 0 70.656 70.656 0 0 1 0 91.0336L556.612608 674.6112C534.494208 683.008 519.748608 691.2 504.900608 691.2z"  horiz-adv-x="1024" />
      
      <glyph glyph-name="shouqi" unicode="&#59109;" d="M256 629.333333a32 32 0 0 1 0-64h512a32 32 0 0 1 0 64H256z m0-213.333333a32 32 0 0 1 0-64h256a32 32 0 0 1 0 64H256zM224 170.666667a32 32 0 0 0 32 32h512a32 32 0 0 0 0-64H256a32 32 0 0 0-32 32z m557.866667 208.128a4.992 4.992 0 0 1 0 8.618666l-134.4 77.610667a4.992 4.992 0 0 1-7.466667-4.309333v-155.178667c0-3.84 4.138667-6.229333 7.466667-4.309333l134.4 77.568z"  horiz-adv-x="1024" />
      
      <glyph glyph-name="Link" unicode="&#59110;" d="M582.784 208.768a9.216 9.216 0 0 1-12.928 0l-132.8-132.8c-61.44-61.44-165.248-67.968-233.152 0-67.968 68.032-61.44 171.648 0 233.152l132.8 132.8a9.152 9.152 0 0 1 0 12.928l-45.44 45.44a9.152 9.152 0 0 1-12.928 0L145.536 367.488a247.04 247.04 0 0 1 0-349.696 247.168 247.168 0 0 1 349.696 0l132.8 132.8a9.152 9.152 0 0 1 0 12.928l-45.248 45.248z m295.552 541.696a247.04 247.04 0 0 1-349.76 0L395.712 617.664a9.152 9.152 0 0 1 0-12.864l45.376-45.44a9.152 9.152 0 0 1 12.864 0l132.8 132.864c61.504 61.44 165.248 67.968 233.152 0 68.032-68.032 61.44-171.712 0-233.152l-132.8-132.8a9.152 9.152 0 0 1 0-12.928l45.44-45.44a9.152 9.152 0 0 1 12.992 0l132.8 132.736a247.424 247.424 0 0 1 0 349.824zM624 543.744a9.152 9.152 0 0 1-12.864 0L352.256 284.992a9.152 9.152 0 0 1 0-12.928l45.248-45.248a9.152 9.152 0 0 1 12.928 0l258.752 258.752a9.152 9.152 0 0 1 0 12.928l-45.184 45.248z"  horiz-adv-x="1024" />
      
      <glyph glyph-name="drop" unicode="&#59111;" d="M507.733333-119.808l-347.477333 397.653333a21.76 21.76 0 0 0 16.384 36.096h187.562667a22.186667 22.186667 0 0 1 21.674666 22.186667 1630.805333 1630.805333 0 0 1-12.544 207.616c-23.210667 169.386667-105.130667 264.533333-168.362666 313.685333a21.76 21.76 0 0 0 18.176 38.144C588.8 835.157333 665.6 425.472 679.424 332.629333a21.248 21.248 0 0 1 21.504-18.773333h170.666667a21.76 21.76 0 0 0 16.128-36.010667l-347.306667-397.653333a21.845333 21.845333 0 0 0-32.682667 0z"  horiz-adv-x="1024" />
      
      <glyph glyph-name="search" unicode="&#59112;" d="M1011.66695-56.678436l-257.177471 257.177472a425.369387 425.369387 0 0 1-28.159986 570.777314A424.038188 424.038188 0 0 1 425.478443 895.999488a423.782188 423.782188 0 0 1-300.799849-124.723138 425.318187 425.318187 0 0 1 0-601.702099 424.140588 424.140588 0 0 1 300.902249-124.620737 424.447788 424.447788 0 0 1 269.977465 96.511951l257.177472-257.177471a41.625579 41.625579 0 1 1 58.93117 59.03357zM425.427243 128.511872a340.01903 340.01903 0 0 0-241.868679 100.19835A339.96783 339.96783 0 0 0 83.462614 470.476501c0 44.441578 8.499196 87.807956 25.087988 128.819135a339.96783 339.96783 0 0 0 75.110362 113.049544A339.96783 339.96783 0 0 0 425.478443 812.54353c44.441578 0 87.756756-8.499196 128.767936-25.087988a339.96783 339.96783 0 0 0 113.049543-75.110362 340.01903 340.01903 0 0 0 100.19835-241.868679c0-44.441578-8.499196-87.756756-25.087987-128.767936a339.96783 339.96783 0 0 0-75.110363-113.049543 339.96783 339.96783 0 0 0-241.817479-100.19835z"  horiz-adv-x="1024" />
      
      <glyph glyph-name="check" unicode="&#59098;" d="M346.1152 123.2L71.2352 409.024a37.76 37.76 0 0 1-40.32 10.88 39.616 39.616 0 0 1-29.376-30.528 44.736 44.736 0 0 1 11.136-42.624L346.1152 0l666.88 693.504a43.776 43.776 0 0 1 11.008 31.168 44.8 44.8 0 0 1-12.992 30.464 38.72 38.72 0 0 1-28.672 12.864 41.856 41.856 0 0 1-29.312-12.16l-606.976-632.64z"  horiz-adv-x="1024" />
      
      <glyph glyph-name="arrow" unicode="&#59097;" d="M512 384m0-512a512 512 0 1 1 0 1024 512 512 0 1 1 0-1024ZM634.325333 384c0-8.533333-3.328-15.658667-9.941333-21.333333l-183.466667-183.466667a28.117333 28.117333 0 0 0-20.608-8.533333 30.506667 30.506667 0 0 0-21.333333 8.533333 27.818667 27.818667 0 0 0-9.258667 21.333333c0 8.533333 3.328 15.658667 9.941334 21.333334l162.133333 162.133333-162.133333 162.133333a28.928 28.928 0 0 0-8.533334 21.333334c0 8.533333 2.858667 15.658667 8.533334 21.333333a28.074667 28.074667 0 0 0 20.650666 8.533333c8.021333 0 14.933333-2.858667 20.608-8.533333l183.466667-183.466667c6.613333-5.674667 9.941333-12.8 9.941333-21.333333z"  horiz-adv-x="1024" />
      
      <glyph glyph-name="dkh-Hover" unicode="&#59100;" d="M512 560m-176 0a176 176 0 1 1 352 0 176 176 0 1 1-352 0ZM864 32c0 176.736-173.12 320-352 320S160 208.736 160 32h704zM537.856 215.04c-1.472 4.928-7.136 8.96-12.64 8.96h-26.432c-5.504 0-11.2-4.032-12.64-8.96l-37.696-123.776a15.552 15.552 0 0 1 4.896-15.04l51.136-41.696c4.16-3.36 10.88-3.36 15.04 0l51.136 41.696a15.488 15.488 0 0 1 4.896 15.04l-37.696 123.808zM522.24 256c4.416 0 9.472 4.256 11.264 9.408l9.856 31.584c1.76 5.184-0.224 10.944-4.416 12.832l-19.424 8.768a21.056 21.056 0 0 1-15.2 0l-19.2-8.736c-4.16-1.92-6.208-7.744-4.544-12.96l9.088-31.392c1.696-5.216 6.72-9.504 11.136-9.504h21.44z"  horiz-adv-x="1024" />
      
      <glyph glyph-name="copy" unicode="&#59099;" d="M394.624 789.312h448a74.688 74.688 0 0 0 74.688-74.624v-448A74.688 74.688 0 0 0 842.624 192h-448a74.688 74.688 0 0 0-74.688 74.688v448a74.688 74.688 0 0 0 74.688 74.688z m0-64a10.688 10.688 0 0 1-10.688-10.624v-448a10.688 10.688 0 0 1 10.688-10.688h448a10.688 10.688 0 0 1 10.688 10.688v448a10.688 10.688 0 0 1-10.688 10.688h-448zM639.936 128a32 32 0 1 0 64 0v-74.624a74.688 74.688 0 0 0-74.624-74.688h-448a74.688 74.688 0 0 0-74.688 74.688v448A74.688 74.688 0 0 0 181.312 576h74.624a32 32 0 0 0 0-64H181.312a10.688 10.688 0 0 1-10.688-10.688v-448a10.688 10.688 0 0 1 10.688-10.624h448a10.688 10.688 0 0 1 10.624 10.688V128z"  horiz-adv-x="1024" />
      
      <glyph glyph-name="down2" unicode="&#59101;" d="M512 384m-512 0a512 512 0 1 1 1024 0 512 512 0 1 1-1024 0ZM512 261.674667a26.965333 26.965333 0 0 0-21.333333 9.984l-183.466667 183.466666A28.117333 28.117333 0 0 0 298.666667 475.733333c0 8.064 2.858667 15.189333 8.533333 21.333334a27.818667 27.818667 0 0 0 21.333333 9.258666c8.533333 0 15.658667-3.328 21.333334-9.984l162.133333-162.133333 162.133333 162.133333c5.674667 5.717333 12.8 8.533333 21.333334 8.533334s15.658667-2.816 21.333333-8.533334c5.674667-5.674667 8.533333-12.544 8.533333-20.608s-2.858667-14.933333-8.533333-20.608l-183.466667-183.466666a26.965333 26.965333 0 0 0-21.333333-9.984z"  horiz-adv-x="1024" />
      
      <glyph glyph-name="download" unicode="&#59102;" d="M512 154.112c-11.52 0-20.906667 9.386667-20.906667 20.906667V592.981333c0 11.52 9.386667 20.906667 20.906667 20.906667 11.477333 0 20.906667-9.386667 20.906667-20.906667v-417.962666c0-11.52-9.429333-20.906667-20.906667-20.906667zM512 154.112a20.650667 20.650667 0 0 0-14.634667 6.272 20.821333 20.821333 0 0 0 0 29.781333l169.258667 169.258667a20.821333 20.821333 0 0 0 29.781333 0 20.821333 20.821333 0 0 0 0-29.781333l-169.258666-169.258667a22.784 22.784 0 0 0-15.146667-6.272zM512 154.112a20.608 20.608 0 0 0-14.634667 6.272L328.106667 329.642667a20.821333 20.821333 0 0 0 0 29.781333 20.821333 20.821333 0 0 0 29.781333 0l169.258667-169.258667a20.821333 20.821333 0 0 0 0-29.781333 22.741333 22.741333 0 0 0-15.146667-6.272zM511.957333-33.962667c-230.4 0-417.962667 187.562667-417.962666 417.962667C93.994667 614.4 281.6 801.962667 512 801.962667c230.4 0 417.962667-187.562667 417.962667-417.962667 0-230.4-187.562667-417.962667-417.962667-417.962667z m0 794.112c-207.402667 0-376.149333-168.746667-376.149333-376.149333 0-207.402667 168.746667-376.149333 376.149333-376.149333 207.402667 0 376.149333 168.746667 376.149334 376.149333 0 207.402667-168.746667 376.149333-376.149334 376.149333z"  horiz-adv-x="1024" />
      
      <glyph glyph-name="down" unicode="&#59103;" d="M504.900608 76.8a53.5552 53.5552 0 0 0-36.9664 16.5888L16.862208 581.5296a70.656 70.656 0 0 0 0 91.136 53.76 53.76 0 0 0 81.408 0L512.273408 225.6896l414.0032 446.7712a53.76 53.76 0 0 0 81.408 0 70.656 70.656 0 0 0 0-91.0336L556.612608 93.3888c-22.1184-8.2944-36.864-16.5888-51.712-16.5888z"  horiz-adv-x="1024" />
      
      <glyph glyph-name="dkh" unicode="&#59104;" d="M512 560m-176 0a176 176 0 1 1 352 0 176 176 0 1 1-352 0ZM864 32c0 176.736-173.12 320-352 320S160 208.736 160 32h704zM537.856 215.04c-1.472 4.928-7.136 8.96-12.64 8.96h-26.432c-5.504 0-11.2-4.032-12.64-8.96l-37.696-123.776a15.552 15.552 0 0 1 4.896-15.04l51.136-41.696c4.16-3.36 10.88-3.36 15.04 0l51.136 41.696a15.488 15.488 0 0 1 4.896 15.04l-37.696 123.808zM522.24 256c4.416 0 9.472 4.256 11.264 9.408l9.856 31.584c1.76 5.184-0.224 10.944-4.416 12.832l-19.424 8.768a21.056 21.056 0 0 1-15.2 0l-19.2-8.736c-4.16-1.92-6.208-7.744-4.544-12.96l9.088-31.392c1.696-5.216 6.72-9.504 11.136-9.504h21.44z"  horiz-adv-x="1024" />
      
    </font>
</defs>
</svg>
